百度云资源论坛

 找回密码
 立即注册
搜索

釜山行2:半岛 Train.to.Busan.2.Peninsula.2020.KOREAN.720p.BluRay.x264.DTS...

[复制链接]
百度云电影 发表于 2020-11-16 10:02:30 | 显示全部楼层 |阅读模式
帖子完整标题:釜山行2:半岛 Train.to.Busan.2.Peninsula.2020.KOREAN.720p.BluRay.x264.DTS-MT 5.32GB


[/url]

◎译  名 釜山行2:半岛/Peninsula/Train to Busan 2/半岛/尸杀半岛(港)/尸速列车:感染半岛(台)/釜山行2
◎片  名 ???2-??
◎年  代 2020
◎产  地 韩国
◎类  别 动作 / 惊悚
◎语  言 韩语,英语,粤语
◎上映日期 2020-07-15(韩国)
◎IMDb评分  5.4/10 from 14880 users
◎  
◎豆瓣评分 5.1/10 from 85030 users
◎ 
◎片  长 115分钟
◎导  演 延尚昊 Sang-ho Yeon
◎编  剧 延尚昊 Sang-ho Yeon
◎主  演 姜栋元 Dong-won Kang
       李贞贤 Jung-hyun Lee
       权海骁 Hae-hyo Kwon
       李来 Re Lee
       金敏载 Kim Min-jae
       具教焕 Gu Kyohwan
       金度允 Do-yoon Kim
       李艺媛 Ye-won Lee
       文宇振 Woo-jin Moon
       金丹菲 Dan-bi Kim

◎标  签 丧尸 | 灾难 | 韩国 | 韩国电影 | 恐怖 | 人性 | 2020 | 电影

◎简  介

  上集列车驶往釜山后,丧尸病毒瞬间全国爆发,4年后的韩国尸毒遍野,被全球孤立,沦为死城。所馀无几的生还者踏上最后一艘难民船,离开被世人遗弃的朝鲜半岛。退伍军人正锡(姜栋元 饰)和家人有幸登上难民船,但一上船便发现丧尸潜伏,幸得香港收容,这批韩国人才得以上岸,以「半岛难民」身分在香港重新生活。但正锡受不住金钱诱惑,加入了一个回国窃取巨额美金的行动。他和队友重返韩国,竟然发现仍有一班未受尸毒感染的人在挣扎求存,正锡决定带这班倖存者逃生,他们最后能否成功逃出尸杀半岛?

◎获奖情况

  第73届戛纳电影节 ?(2020)
  入选过戛纳导演作品(提名)
  
  第41届韩国电影青龙奖 ?(2020)
  最佳导演(提名) 延尚昊
  最佳女配角(提名) 李来
  最佳美术(提名)
  最佳照明(提名)
  技术奖(提名)
Video
ID                                       : 1
Format                                   : AVC
Format/Info                              : Advanced Video Codec
Format profile                           :
Format settings                          : CABAC / 12 Ref Frames
Format settings, CABAC                   : Yes
Format settings, Reference frames        : 12 frames
Codec ID                                 : V_MPEG4/ISO/AVC
Duration                                 : 1 h 55 min
Bit rate                                 : 3 550 kb/s
Width                                    : 1 280 pixels
Height                                   : 536 pixels
Display aspect ratio                     : 2.40:1
Frame rate mode                          : Constant
Frame rate                               : 24.000 FPS
Color space                              : YUV
Chroma subsampling                       : 4:2:0
Bit depth                                : 8 bits
Scan type                                : Progressive
Bits/(Pixel*Frame)                       : 0.216
Stream size                              : 2.87 GiB (54%)
Writing library                          : x264 core 157 r2938 2b00a84  Mod
Encoding settings                        : cabac=1 / ref=12 / deblock=1:-3:-3 / analyse=0x3:0x133 / me=umh / subme=10 / psy=1 / psy_rd=1.05:0.00 / mixed_ref=1 / me_range=32 / chroma_me=1 / trellis=2 / 8x8dct=1 / cqm=0 / deadzone=21,11 / fast_pskip=0 / chroma_qp_offset=-2 / threads=12 / lookahead_threads=2 / sliced_threads=0 / nr=0 / decimate=0 / interlaced=0 / bluray_compat=0 / constrained_intra=0 / bframes=8 / b_pyramid=2 / b_adapt=2 / b_bias=0 / direct=3 / weightb=1 / open_gop=0 / weightp=2 / keyint=250 / keyint_min=24 / scenecut=40 / intra_refresh=0 / rc_lookahead=250 / rc=crf / mbtree=0 / crf=16.8 / qcomp=0.60 / qpmin=0 / qpmax=69 / qpstep=4 / vbv_maxrate=62500 / vbv_bufsize=78125 / crf_max=0.0 / nal_hrd=none / filler=0 / ip_ratio=1.30 / pb_ratio=1.20 / aq=3:0.80
Language                                 : English
Default                                  : Yes
Forced                                   : No
Color range                              : Limited
Color primaries                          : BT.709
Matrix coefficients                      : BT.709

Audio #1
ID                                       : 2
Format                                   : DTS
Format/Info                              : Digital Theater Systems
Codec ID                                 : A_DTS
Duration                                 : 1 h 55 min
Bit rate mode                            : Constant
Bit rate                                 : 1 509 kb/s
Channel(s)                               : 6 channels
Channel layout                           : C L R Ls Rs LFE
Sampling rate                            : 48.0 kHz
Frame rate                               : 93.750 FPS (512 SPF)
Bit depth                                : 24 bits
Compression mode                         : Lossy
Stream size                              : 1.22 GiB (23%)
Language                                 : Korean
Default                                  : Yes
Forced                                   : No

Audio #2
ID                                       : 3
Format                                   : DTS
Format/Info                              : Digital Theater Systems
Codec ID                                 : A_DTS
Duration                                 : 1 h 55 min
Bit rate mode                            : Constant
Bit rate                                 : 1 509 kb/s
Channel(s)                               : 6 channels
Channel layout                           : C L R Ls Rs LFE
Sampling rate                            : 48.0 kHz
Frame rate                               : 93.750 FPS (512 SPF)
Bit depth                                : 16 bits
Compression mode                         : Lossy
Stream size                              : 1.22 GiB (23%)
Language                                 : English
Default                                  : No
Forced                                   : No

Text
ID                                       : 4
Format                                   : UTF-8
Codec ID                                 : S_TEXT/UTF8
Codec ID/Info                            : UTF-8 Plain Text
Duration                                 : 1 h 49 min
Bit rate                                 : 30 b/s
Count of elements                        : 1011
Stream size                              : 24.2 KiB (0%)
Language                                 : English
Default                                  : Yes
Forced                                   : No

Menu
00:00:00.000                             : en:Chapter 01
00:09:45.542                             : en:Chapter 02
00:18:59.542                             : en:Chapter 03
00:27:25.458                             : en:Chapter 04
00:39:40.542                             : en:Chapter 05
00:46:31.958                             : en:Chapter 06
00:58:44.500                             : en:Chapter 07
01:08:44.708                             : en:Chapter 08
01:18:08.333                             : en:Chapter 09
01:29:02.333                             : en:Chapter 10
01:39:40.917                             : en:Chapter 11
01:51:12.083                             : en:Chapter 12
[/url][/url][/url]



                                                                                                                                                                                                        
                                                                                                                                                                                                                                                                                                                                                                                                                                                                                                                                                                                                                                                                                                                                                                                                                                                         15b52fc3bc947bf701a193949558acc7.zip (27.3 KB, 下载次数: 0)

回复

使用道具 举报

小黑屋|百度云资源论坛 |网站地图

本网站所有资源来自网络,如无意中侵犯了您的权益,请发邮件至 [email protected],立即清除相关链接

GMT+8, 2020-11-27 07:13 , Processed in 0.105189 second(s), 23 queries .

Powered by Discuz! X3.2

© 2001-2013 Comsenz Inc.

快速回复 返回顶部 返回列表