百度云资源论坛

 找回密码
 立即注册
搜索

精疲力尽 Breathless.1960.REMASTERED.720p.BluRay.x264-SURCODE 5.52GB

[复制链接]
百度云资源 发表于 2020-11-16 10:02:30 | 显示全部楼层 |阅读模式
帖子完整标题:精疲力尽 Breathless.1960.REMASTERED.720p.BluRay.x264-SURCODE 5.52GB


[/url]

◎译  名 精疲力尽/Breathless/断了气(港/台)/欲海惊魂(港)/穷途末路/筋疲力尽/精疲力竭
◎片  名 à bout de souffle
◎年  代 1960
◎产  地 法国
◎类  别 剧情 / 爱情 / 犯罪
◎语  言 法语,英语
◎上映日期 1960-03-16(法国)
◎IMDb评分  7.8/10 from 72039 users
◎  
◎豆瓣评分 8.4/10 from 36625 users
◎ 
◎片  长 90 分钟
◎导  演 让-吕克·戈达尔 Jean-Luc Godard
◎编  剧 弗朗索瓦·特吕弗 Fran?ois Truffaut / 让-吕克·戈达尔 Jean-Luc Godard / 克洛德·夏布洛尔 Claude Chabrol
◎主  演 珍·茜宝 Jean Seberg
       让-保罗·贝尔蒙多 Jean-Paul Belmondo
       达尼埃尔·布朗热 Daniel Boulanger
       亨利-雅克·于埃 Henri-Jacques Huet
       罗杰·哈宁 Roger Hanin
       范都德 Van Doude
       克洛德·芒萨尔 Claude Mansard
       莉莲·德莱弗斯 Liliane Dreyfus
       让-皮埃尔·梅尔维尔 Jean-Pierre Melville
       让-吕克·戈达尔 Jean-Luc Godard
       里夏尔·巴尔杜奇 Richard Balducci
       安德烈·S·拉巴尔特 André S. Labarthe
       弗朗索瓦·莫瑞尔 Fran?ois Moreuil
       Jacques Lourcelles
       热拉尔·布拉什 Gérard Brach
       菲利普·德·布罗卡 Philippe de Broca
       José Bénazéraf
       让·杜歇 Jean Douchet
       雷蒙德·亨特利 Raymond Huntley
       Louiguy
       Guido Orlando
       让-路易·里夏尔 Jean-Louis Richard
       Jacques Siclier

◎标  签 法国 | 新浪潮 | 1960 | 经典 | 爱情 | 黑白 | 犯罪 | 剧情

◎简  介

  本片和特吕弗的《四百击》同被誉为法国电影新浪潮的开山之作。
  
  身无分文的街头混混米歇尔(让-保罗?贝尔蒙多)从马赛偷了一辆小汽车,驶往巴黎的路上,他因超速行驶被警察逮住,为了脱身,他开枪打死一名警察,来到巴黎后,他躲进当记者的女友帕特丽夏(Jean Seberg)处(躲避警方的通缉之外,他还想方设法讨回一笔卖车赚来的钱)。帕特丽夏去报社时,遇到警长,对方要她一有米歇尔的消息就打电话相告。对米歇尔,帕特丽夏心态复杂,一面深深为他对一切都无所谓的劲儿着迷,一面却嫌弃他太吊儿郎当。

◎获奖情况

  第10届柏林国际电影节 ?(1960)
  金熊奖最佳影片(提名) 让-吕克·戈达尔
  银熊奖最佳导演 让-吕克·戈达尔
Video
ID                                       : 1
Format                                   : AVC
Format/Info                              : Advanced Video Codec
Format profile                           :
Format settings                          : CABAC / 8 Ref Frames
Format settings, CABAC                   : Yes
Format settings, Reference frames        : 8 frames
Codec ID                                 : V_MPEG4/ISO/AVC
Duration                                 : 1 h 30 min
Bit rate                                 : 8 132 kb/s
Width                                    : 986 pixels
Height                                   : 720 pixels
Display aspect ratio                     : 4:3
Frame rate mode                          : Constant
Frame rate                               : 24.000 FPS
Color space                              : YUV
Chroma subsampling                       : 4:2:0
Bit depth                                : 8 bits
Scan type                                : Progressive
Bits/(Pixel*Frame)                       : 0.477
Stream size                              : 5.13 GiB (93%)
Writing library                          : x264 core 161 r3018 db0d417
Encoding settings                        : cabac=1 / ref=8 / deblock=1:-3:-3 / analyse=0x3:0x133 / me=umh / subme=9 / psy=1 / psy_rd=1.00:0.00 / mixed_ref=1 / me_range=16 / chroma_me=1 / trellis=2 / 8x8dct=1 / cqm=0 / deadzone=21,11 / fast_pskip=0 / chroma_qp_offset=-2 / threads=22 / lookahead_threads=1 / sliced_threads=0 / nr=0 / decimate=1 / interlaced=0 / bluray_compat=0 / constrained_intra=0 / bframes=3 / b_pyramid=2 / b_adapt=2 / b_bias=0 / direct=3 / weightb=1 / open_gop=0 / weightp=2 / keyint=250 / keyint_min=24 / scenecut=40 / intra_refresh=0 / rc_lookahead=60 / rc=crf / mbtree=1 / crf=19.2 / qcomp=0.60 / qpmin=0 / qpmax=69 / qpstep=4 / ip_ratio=1.40 / aq=1:1.00
Language                                 : English
Default                                  : Yes
Forced                                   : No

Audio
ID                                       : 2
Format                                   : FLAC
Format/Info                              : Free Lossless Audio Codec
Codec ID                                 : A_FLAC
Duration                                 : 1 h 30 min
Bit rate mode                            : Variable
Bit rate                                 : 596 kb/s
Channel(s)                               : 2 channels
Channel layout                           : L R
Sampling rate                            : 48.0 kHz
Frame rate                               : 11.719 FPS (4096 SPF)
Bit depth                                : 24 bits
Compression mode                         : Lossless
Stream size                              : 385 MiB (7%)
Writing library                          : libFLAC 1.3.2 (UTC 2017-01-01)
Language                                 : French
Default                                  : Yes
Forced                                   : No

Text #1
ID                                       : 3
Format                                   : UTF-8
Codec ID                                 : S_TEXT/UTF8
Codec ID/Info                            : UTF-8 Plain Text
Duration                                 : 1 h 29 min
Bit rate                                 : 42 b/s
Count of elements                        : 762
Stream size                              : 28.0 KiB (0%)
Language                                 : English
Default                                  : Yes
Forced                                   : No

Text #2
ID                                       : 4
Format                                   : PGS
Muxing mode                              : zlib
Codec ID                                 : S_HDMV/PGS
Codec ID/Info                            : Picture based subtitle format used on BDs/HD-DVDs
Duration                                 : 1 h 29 min
Bit rate                                 : 27.0 kb/s
Count of elements                        : 1524
Stream size                              : 17.2 MiB (0%)
Language                                 : English
Default                                  : No
Forced                                   : No

Text #3
ID                                       : 5
Format                                   : PGS
Muxing mode                              : zlib
Codec ID                                 : S_HDMV/PGS
Codec ID/Info                            : Picture based subtitle format used on BDs/HD-DVDs
Duration                                 : 1 h 29 min
Bit rate                                 : 33.0 kb/s
Count of elements                        : 2705
Stream size                              : 21.2 MiB (0%)
Language                                 : French
Default                                  : No
Forced                                   : No

Text #4
ID                                       : 6
Format                                   : PGS
Muxing mode                              : zlib
Codec ID                                 : S_HDMV/PGS
Codec ID/Info                            : Picture based subtitle format used on BDs/HD-DVDs
Duration                                 : 1 h 29 min
Bit rate                                 : 533 b/s
Count of elements                        : 32
Stream size                              : 350 KiB (0%)
Language                                 : German
Default                                  : No
Forced                                   : No

Menu
00:00:00.000                             : en:Kapitel 01
00:05:56.250                             : en:Kapitel 02
00:10:01.875                             : en:Kapitel 03
00:18:12.958                             : en:Kapitel 04
00:26:26.292                             : en:Kapitel 05
00:37:11.208                             : en:Kapitel 06
00:52:51.000                             : en:Kapitel 07
01:00:14.083                             : en:Kapitel 08
01:05:03.875                             : en:Kapitel 09
01:12:07.250                             : en:Kapitel 10
01:18:49.417                             : en:Kapitel 11
01:23:00.417                             : en:Kapitel 12
[/url]



                                                                                                                                                                                                        
                                                                                                                                                                                                                                                                                                                                                                                                                                                                                                                                                                                                                                                                                                                                                                                                                                                         e56a1c47b0ee61af9fed394b2cd64a65.zip (28.31 KB, 下载次数: 0)

回复

使用道具 举报

小黑屋|百度云资源论坛 |网站地图

本网站所有资源来自网络,如无意中侵犯了您的权益,请发邮件至 [email protected],立即清除相关链接

GMT+8, 2020-11-27 08:21 , Processed in 0.102997 second(s), 23 queries .

Powered by Discuz! X3.2

© 2001-2013 Comsenz Inc.

快速回复 返回顶部 返回列表