百度云资源论坛

 找回密码
 立即注册
搜索

芳名卡门 First.Name.Carmen.1983.720p.BluRay.x264-USURY 6.59GB

[复制链接]
百度云资源 发表于 2020-11-16 10:02:30 | 显示全部楼层 |阅读模式
帖子完整标题:芳名卡门 First.Name.Carmen.1983.720p.BluRay.x264-USURY 6.59GB


[/url]

◎译  名 芳名卡门/First Name: Carmen
◎片  名 Prénom Carmen
◎年  代 1983
◎产  地 法国
◎类  别 剧情 / 喜剧 / 爱情 / 音乐 / 犯罪
◎语  言 法语
◎上映日期 1983-09(威尼斯电影节) / 1984-01-11(法国)
◎IMDb评分  6.5/10 from 3371 users
◎  
◎豆瓣评分 7.7/10 from 3503 users
◎ 
◎片  长 85 分钟
◎导  演 让-吕克·戈达尔 Jean-Luc Godard
◎编  剧 安娜-玛丽·米埃维尔 Anne-Marie Miéville
◎主  演 玛鲁施卡·迪特马斯 Maruschka Detmers
       贾克·鲍那非 Jacques Bonnaffé
       米里昂·鲁塞尔 Myriem Roussel
       让-吕克·戈达尔 Jean-Luc Godard
       克里斯多夫·奥顿特 Christophe Odent
       瓦莱丽·德维尔 Valérie Dréville
       伊波利特·吉拉尔多 Hippolyte Girardot

◎标  签 法国 | 戈达尔 | 新浪潮 | 法国电影 | 让-吕克·戈达尔 | 1983 | Jean-Luc_Godard | JeanLucGodard

◎简  介

  卡门(玛鲁施卡?迪特马斯 Maruschka Detmers 饰)找到在医院住院的伯父戈达尔(让-吕克?戈达尔 Jean-Luc Godard 饰),借口和朋友拍摄电影向他要海边的别墅住。戈达尔状态怪诞,呆在医院里盼望着生病边写作,一边又渴望着能有拍片的机会,同意了卡门的要求。卡门在一场银行抢劫中结识了警察约瑟夫,两人搏斗后竟然互生好感相恋。卡门带约瑟夫来到了海边的别墅里。不久卡门对约瑟夫慢慢冷淡,约瑟夫却越来越离不开卡门,几次纠缠无果后他在卡门的一次抢劫行动中杀死了她。而伯父戈达尔却莫名其妙地被卷入了这场案件之中。而在平行世界的另一段,小提琴手克莱尔正安静地演奏弦乐四重奏......

◎获奖情况

  第40届威尼斯电影节 ?(1983)
  主竞赛单元金狮奖 让-吕克·戈达尔
Video
ID                                       : 1
Format                                   : AVC
Format/Info                              : Advanced Video Codec
Format profile                           :
Format settings                          : CABAC / 12 Ref Frames
Format settings, CABAC                   : Yes
Format settings, Reference frames        : 12 frames
Codec ID                                 : V_MPEG4/ISO/AVC
Duration                                 : 1 h 24 min
Bit rate                                 : 10.0 Mb/s
Width                                    : 960 pixels
Height                                   : 720 pixels
Display aspect ratio                     : 4:3
Frame rate mode                          : Constant
Frame rate                               : 23.976 (24000/1001/189150) FPS
Color space                              : YUV
Chroma subsampling                       : 4:2:0
Bit depth                                : 8 bits
Scan type                                : Progressive
Bits/(Pixel*Frame)                       : 0.606
Stream size                              : 5.94 GiB (90%)
Writing library                          : x264 core 161 r3027 4121277
Encoding settings                        : cabac=1 / ref=12 / deblock=1:-3:-3 / analyse=0x3:0x133 / me=umh / subme=10 / psy=1 / psy_rd=1.00:0.15 / mixed_ref=1 / me_range=24 / chroma_me=1 / trellis=2 / 8x8dct=1 / cqm=0 / deadzone=21,11 / fast_pskip=1 / chroma_qp_offset=-3 / threads=18 / lookahead_threads=3 / sliced_threads=0 / nr=0 / decimate=1 / interlaced=0 / bluray_compat=0 / constrained_intra=0 / bframes=8 / b_pyramid=2 / b_adapt=2 / b_bias=0 / direct=3 / weightb=1 / open_gop=0 / weightp=2 / keyint=250 / keyint_min=23 / scenecut=40 / intra_refresh=0 / rc_lookahead=60 / rc=crf / mbtree=1 / crf=20.0 / qcomp=0.60 / qpmin=0 / qpmax=69 / qpstep=4 / ip_ratio=1.40 / aq=3:0.50
Language                                 : English
Default                                  : Yes
Forced                                   : No

Audio #1
ID                                       : 2
Format                                   : FLAC
Format/Info                              : Free Lossless Audio Codec
Codec ID                                 : A_FLAC
Duration                                 : 1 h 24 min
Bit rate mode                            : Variable
Bit rate                                 : 973 kb/s
Channel(s)                               : 2 channels
Channel layout                           : L R
Sampling rate                            : 48.0 kHz
Frame rate                               : 11.719 FPS (4096 SPF)
Bit depth                                : 24 bits
Compression mode                         : Lossless
Stream size                              : 590 MiB (9%)
Writing library                          : libFLAC 1.2.1 (UTC 2007-09-17)
Language                                 : French
Default                                  : Yes
Forced                                   : No

Audio #2
ID                                       : 3
Format                                   : AAC LC
Format/Info                              : Advanced Audio Codec Low Complexity
Codec ID                                 : A_AAC-2
Duration                                 : 1 h 24 min
Bit rate                                 : 98.6 kb/s
Channel(s)                               : 2 channels
Channel layout                           : L R
Sampling rate                            : 48.0 kHz
Frame rate                               : 46.875 FPS (1024 SPF)
Compression mode                         : Lossy
Delay relative to video                  : 9 ms
Stream size                              : 59.8 MiB (1%)
Title                                    : English Commentary by Craig Keller
Language                                 : English
Default                                  : No
Forced                                   : No

Text #1
ID                                       : 4
Format                                   : UTF-8
Codec ID                                 : S_TEXT/UTF8
Codec ID/Info                            : UTF-8 Plain Text
Duration                                 : 1 h 24 min
Bit rate                                 : 28 b/s
Count of elements                        : 746
Stream size                              : 17.3 KiB (0%)
Title                                    : English
Language                                 : English
Default                                  : Yes
Forced                                   : Yes

Text #2
ID                                       : 5
Format                                   : PGS
Muxing mode                              : zlib
Codec ID                                 : S_HDMV/PGS
Codec ID/Info                            : Picture based subtitle format used on BDs/HD-DVDs
Duration                                 : 1 h 24 min
Bit rate                                 : 24.1 kb/s
Count of elements                        : 1492
Stream size                              : 14.5 MiB (0%)
Title                                    : English
Language                                 : English
Default                                  : No
Forced                                   : No

Menu
00:00:00.000                             : en:00:00:00.000
00:11:51.961                             : en:00:11:51.961
00:18:26.897                             : en:00:18:26.897
00:27:25.143                             : en:00:27:25.143
00:37:26.327                             : en:00:37:26.327
00:45:15.046                             : en:00:45:15.046
00:51:29.128                             : en:00:51:29.128
00:58:09.820                             : en:00:58:09.820
01:06:27.025                             : en:01:06:27.025
01:15:50.254                             : en:01:15:50.254
[/url]



                                                                                                                                                                                                        
                                                                                                                                                                                                                                                                                                                                                                                                                                                                                                                                                                                                                                                                                                                                                                                                                                                         d9035a6a1bd3421af24970bc5ac8752b.zip (33.68 KB, 下载次数: 0)

回复

使用道具 举报

小黑屋|百度云资源论坛 |网站地图

本网站所有资源来自网络,如无意中侵犯了您的权益,请发邮件至 [email protected],立即清除相关链接

GMT+8, 2020-11-27 07:37 , Processed in 0.106434 second(s), 23 queries .

Powered by Discuz! X3.2

© 2001-2013 Comsenz Inc.

快速回复 返回顶部 返回列表