百度云资源论坛

 找回密码
 立即注册
搜索

亲爱的日记 Dear.Diary.1993.720p.BluRay.x264-USURY 7.19GB

[复制链接]
百度云资源 发表于 2020-11-16 10:02:30 | 显示全部楼层 |阅读模式
帖子完整标题:亲爱的日记 Dear.Diary.1993.720p.BluRay.x264-USURY 7.19GB


[/url]

◎译  名 亲爱的日记/Dear Diary
◎片  名 Caro diario
◎年  代 1993
◎产  地 法国,意大利
◎类  别 剧情 / 喜剧 / 传记
◎语  言 英语,意大利语,汉语普通话
◎上映日期 1993-11-12
◎IMDb评分  7.3/10 from 7044 users
◎  
◎豆瓣评分 7.8/10 from 1197 users
◎ 
◎片  长 100 分钟
◎导  演 南尼·莫莱蒂 Nanni Moretti
◎编  剧 南尼·莫莱蒂 Nanni Moretti
◎主  演 南尼·莫莱蒂 Nanni Moretti
       朱利叶斯·贝斯 Giulio Base
       卡洛·马扎库拉蒂 Carlo Mazzacurati
       亚历山大·洛克威尔 Alexandre Rockwell
       安杰洛·巴尔巴加洛 Angelo Barbagallo
       雷纳托·卡朋特理 Renato Carpentieri
       詹妮弗·比尔斯 Jennifer Beals
       拉法埃拉·莱博罗尼 Raffaella Lebboroni
       Moni Ovadia
       罗伯托·诺毕雷 Roberto Nobile
       Riccardo Zinna
       Mario Schiano
       Marco Paolini
       翁贝托·康塔罗 Umberto Contarello

◎标  签 意大利 | 意大利电影 | 南尼·莫瑞提 | 法国 | NanniMoretti | Nanni_Moretti | 南尼·莫莱蒂 | 1994

◎简  介

  影片由三个短片构成,片中演员均扮演他们本人。
  
  《踏着我的摩托机车》:南尼骑着摩托车穿梭在大街小巷中,一次偶然中,他结识了女演员詹妮弗·比尔斯,可惜两人语言不通,无法交流。南尼开始看起了电影,他惊诧于一部名叫《连环杀手亨利的肖像》的影片的血腥和庸俗,和对其大唱赞歌的影评人,他找到了那名影评人。
  
  《群岛》:南尼来到了一座小岛上,那里住着他热衷于研究小说《尤利西斯》的怪咖朋友谢拉多。最经,这位朋友竟然迷上了看肥皂剧,他不仅开始将肥皂剧与《尤利西斯》相提并论,更做出了一些更加疯狂的举动。
  
  《医生》:因为皮肤病,南尼进了医院,可是他的病看过了许多人生都没有见好,荒谬的是,这些医生做出的诊断和开出的药方竟然大相径庭。

◎获奖情况

  第47届戛纳电影节 ?(1994)
  主竞赛单元金棕榈奖(提名) 南尼·莫莱蒂
  主竞赛单元最佳导演 南尼·莫莱蒂
Video
ID                                       : 1
Format                                   : AVC
Format/Info                              : Advanced Video Codec
Format profile                           :
Format settings                          : CABAC / 9 Ref Frames
Format settings, CABAC                   : Yes
Format settings, Reference frames        : 9 frames
Codec ID                                 : V_MPEG4/ISO/AVC
Duration                                 : 1 h 40 min
Bit rate                                 : 8 750 kb/s
Width                                    : 1 186 pixels
Height                                   : 720 pixels
Display aspect ratio                     : 16:10
Frame rate mode                          : Constant
Frame rate                               : 23.976 (24000/1001/189150) FPS
Color space                              : YUV
Chroma subsampling                       : 4:2:0
Bit depth                                : 8 bits
Scan type                                : Progressive
Bits/(Pixel*Frame)                       : 0.427
Stream size                              : 6.15 GiB (86%)
Writing library                          : x264 core 161 r3027 4121277
Encoding settings                        : cabac=1 / ref=9 / deblock=1:-3:-3 / analyse=0x3:0x133 / me=umh / subme=10 / psy=1 / psy_rd=1.00:0.15 / mixed_ref=1 / me_range=24 / chroma_me=1 / trellis=2 / 8x8dct=1 / cqm=0 / deadzone=21,11 / fast_pskip=1 / chroma_qp_offset=-3 / threads=18 / lookahead_threads=3 / sliced_threads=0 / nr=0 / decimate=1 / interlaced=0 / bluray_compat=0 / constrained_intra=0 / bframes=8 / b_pyramid=2 / b_adapt=2 / b_bias=0 / direct=3 / weightb=1 / open_gop=0 / weightp=2 / keyint=250 / keyint_min=23 / scenecut=40 / intra_refresh=0 / rc_lookahead=60 / rc=crf / mbtree=1 / crf=17.0 / qcomp=0.60 / qpmin=0 / qpmax=69 / qpstep=4 / ip_ratio=1.40 / aq=3:0.50
Language                                 : English
Default                                  : Yes
Forced                                   : No
Color range                              : Limited
Matrix coefficients                      : BT.709

Audio
ID                                       : 2
Format                                   : FLAC
Format/Info                              : Free Lossless Audio Codec
Codec ID                                 : A_FLAC
Duration                                 : 1 h 40 min
Bit rate mode                            : Variable
Bit rate                                 : 1 464 kb/s
Channel(s)                               : 2 channels
Channel layout                           : L R
Sampling rate                            : 48.0 kHz
Frame rate                               : 11.719 FPS (4096 SPF)
Bit depth                                : 24 bits
Compression mode                         : Lossless
Stream size                              : 1.03 GiB (14%)
Writing library                          : libFLAC 1.2.1 (UTC 2007-09-17)
Language                                 : Italian
Default                                  : Yes
Forced                                   : No

Text #1
ID                                       : 3
Format                                   : UTF-8
Codec ID                                 : S_TEXT/UTF8
Codec ID/Info                            : UTF-8 Plain Text
Duration                                 : 1 h 38 min
Bit rate                                 : 40 b/s
Count of elements                        : 881
Stream size                              : 28.8 KiB (0%)
Title                                    : English
Language                                 : English
Default                                  : Yes
Forced                                   : Yes

Text #2
ID                                       : 4
Format                                   : PGS
Muxing mode                              : zlib
Codec ID                                 : S_HDMV/PGS
Codec ID/Info                            : Picture based subtitle format used on BDs/HD-DVDs
Duration                                 : 1 h 38 min
Bit rate                                 : 13.7 kb/s
Count of elements                        : 1762
Stream size                              : 9.60 MiB (0%)
Title                                    : English
Language                                 : English
Default                                  : No
Forced                                   : No

Menu
00:00:00.000                             : en:00:00:00.000
00:09:52.217                             : en:00:09:52.217
00:17:52.863                             : en:00:17:52.863
00:28:28.749                             : en:00:28:28.749
00:36:10.543                             : en:00:36:10.543
00:45:48.162                             : en:00:45:48.162
00:52:38.614                             : en:00:52:38.614
01:02:44.594                             : en:01:02:44.594
01:11:30.912                             : en:01:11:30.912
01:20:58.020                             : en:01:20:58.020
01:29:26.945                             : en:01:29:26.945
01:38:41.207                             : en:01:38:41.207
[/url]



                                                                                                                                                                                                        
                                                                                                                                                                                                                                                                                                                                                                                                                                                                                                                                                                                                                                                                                                                                                                                                                                                         92ee40a748e93d48b948606676a5c7b5.zip (36.65 KB, 下载次数: 0)

回复

使用道具 举报

小黑屋|百度云资源论坛 |网站地图

本网站所有资源来自网络,如无意中侵犯了您的权益,请发邮件至 [email protected],立即清除相关链接

GMT+8, 2020-11-27 08:19 , Processed in 0.097920 second(s), 23 queries .

Powered by Discuz! X3.2

© 2001-2013 Comsenz Inc.

快速回复 返回顶部 返回列表