百度云资源论坛

 找回密码
 立即注册
搜索

白髮魔女傳 The.Bride.with.White.Hair.1993.720p.BluRay.x264-USURY 6.65GB

[复制链接]
百度云电影 发表于 2020-11-16 10:02:30 | 显示全部楼层 |阅读模式
帖子完整标题:白髮魔女傳 The.Bride.with.White.Hair.1993.720p.BluRay.x264-USURY 6.65GB


[/url]

◎译  名 白发魔女传/The Bride with White Hair/狼女
◎片  名 白髮魔女傳
◎年  代 1993
◎产  地 中国香港
◎类  别 动作 / 爱情 / 奇幻 / 冒险 / 武侠 / 古装
◎语  言 粤语
◎上映日期 1993-08-26(中国香港)
◎IMDb评分  6.9/10 from 3212 users
◎  
◎豆瓣评分 7.7/10 from 66696 users
◎ 
◎片  长 89分钟
◎导  演 于仁泰 Ronny Yu / 胡大为 David Wu
◎编  剧 胡大为 David Wu / 于仁泰 Ronny Yu / 邓碧燕 Elsa Tang / 林纪陶 Jason Lam / 梁羽生 Yusheng Liang
◎主  演 张国荣 Leslie Cheung
       林青霞 Brigitte Lin
       吴镇宇 Francis Ng
       吕少玲 Elaine Lui
       蓝洁瑛 Kit Ying Lam
       罗乐林 Lok Lam Law
       鲍方 Fong Pau
       高雄 Eddy Ko
       曾健明 Kin-Ming Tsang
       袁卓凡 Richard Yuen
       郑敬基 King-Kei Cheng
       唐宁 Leila Tong

◎标  签 香港 | 武侠 | 爱情 | 动作 | 经典 | 古装 | 1993 | 徐克

◎简  介

  明末年间,中原与金国边境战火硝烟四起,姬无双(吴镇宇 饰)的魔教大行肆虐。朝廷与武林联合抗敌。武当派首徒卓一航(张国荣 饰)自幼桀骜不驯,但天资过人,极受掌门紫阳真人看重。卓一航幼年奇遇不断,先后结识了当时还只是武官的吴三桂(高雄 饰)与神秘的狼女(林青霞 饰)。成年后的卓一航为人正直,但浪子本性不改,不愿受礼教束缚,仗义行侠却屡屡受指。大师姐(蓝洁瑛 饰)对其倾心,卓一航却毫不动心。再次偶遇狼女,卓一航心生爱意,狼女亦为之倾心。然后正邪不两立,有情人面对诸般艰难险阻,终是黯然收场……

◎获奖情况

  第30届台北金马影展 ?(1993)
  金马奖最佳改编剧本 邓碧燕?/?林纪陶?/?胡大为?/?于仁泰
  金马奖最佳摄影(提名) 鲍德熹
  金马奖最佳美术设计(提名) 马磐超
  金马奖最佳原创歌曲
  
  第13届香港电影金像奖 ?(1994)
  最佳摄影 鲍德熹
  最佳剪接(提名) 胡大为
  最佳美术指导 马磐超
  最佳服装造型设计 张新耀?/?和田惠美
  最佳原创电影音乐(提名) 袁卓凡
  最佳原创电影歌曲(提名) 张国荣
Video
ID                                       : 1
Format                                   : AVC
Format/Info                              : Advanced Video Codec
Format profile                           :
Format settings                          : CABAC / 12 Ref Frames
Format settings, CABAC                   : Yes
Format settings, Reference frames        : 12 frames
Codec ID                                 : V_MPEG4/ISO/AVC
Duration                                 : 1 h 28 min
Bit rate                                 : 8 150 kb/s
Width                                    : 1 280 pixels
Height                                   : 544 pixels
Display aspect ratio                     : 2.35:1
Frame rate mode                          : Constant
Frame rate                               : 23.976 (24000/1001/189150) FPS
Color space                              : YUV
Chroma subsampling                       : 4:2:0
Bit depth                                : 8 bits
Scan type                                : Progressive
Bits/(Pixel*Frame)                       : 0.488
Stream size                              : 5.06 GiB (76%)
Writing library                          : x264 core 161 r3027 4121277
Encoding settings                        : cabac=1 / ref=12 / deblock=1:-3:-3 / analyse=0x3:0x133 / me=umh / subme=10 / psy=1 / psy_rd=1.00:0.15 / mixed_ref=1 / me_range=24 / chroma_me=1 / trellis=2 / 8x8dct=1 / cqm=0 / deadzone=21,11 / fast_pskip=1 / chroma_qp_offset=-3 / threads=17 / lookahead_threads=2 / sliced_threads=0 / nr=0 / decimate=1 / interlaced=0 / bluray_compat=0 / constrained_intra=0 / bframes=8 / b_pyramid=2 / b_adapt=2 / b_bias=0 / direct=3 / weightb=1 / open_gop=0 / weightp=2 / keyint=250 / keyint_min=23 / scenecut=40 / intra_refresh=0 / rc_lookahead=60 / rc=crf / mbtree=1 / crf=15.0 / qcomp=0.60 / qpmin=0 / qpmax=69 / qpstep=4 / ip_ratio=1.40 / aq=3:0.50
Language                                 : English
Default                                  : Yes
Forced                                   : No
Color range                              : Limited
Matrix coefficients                      : BT.709

Audio #1
ID                                       : 2
Format                                   : FLAC
Format/Info                              : Free Lossless Audio Codec
Codec ID                                 : A_FLAC
Duration                                 : 1 h 28 min
Bit rate mode                            : Variable
Bit rate                                 : 597 kb/s
Channel(s)                               : 2 channels
Channel layout                           : L R
Sampling rate                            : 48.0 kHz
Frame rate                               : 11.719 FPS (4096 SPF)
Bit depth                                : 16 bits
Compression mode                         : Lossless
Stream size                              : 380 MiB (6%)
Title                                    : Cantonese (Original Stereo)
Writing library                          : libFLAC 1.2.1 (UTC 2007-09-17)
Language                                 : Chinese
Default                                  : Yes
Forced                                   : No

Audio #2
ID                                       : 3
Format                                   : AC-3
Format/Info                              : Audio Coding 3
Commercial name                          : Dolby Digital
Codec ID                                 : A_AC3
Duration                                 : 1 h 28 min
Bit rate mode                            : Constant
Bit rate                                 : 640 kb/s
Channel(s)                               : 6 channels
Channel layout                           : L R C LFE Ls Rs
Sampling rate                            : 48.0 kHz
Frame rate                               : 31.250 FPS (1536 SPF)
Compression mode                         : Lossy
Stream size                              : 407 MiB (6%)
Title                                    : Cantonese (Restored 5.1)
Language                                 : Chinese
Service kind                             : Complete Main
Default                                  : No
Forced                                   : No

Audio #3
ID                                       : 4
Format                                   : FLAC
Format/Info                              : Free Lossless Audio Codec
Codec ID                                 : A_FLAC
Duration                                 : 1 h 28 min
Bit rate mode                            : Variable
Bit rate                                 : 488 kb/s
Channel(s)                               : 2 channels
Channel layout                           : L R
Sampling rate                            : 48.0 kHz
Frame rate                               : 11.719 FPS (4096 SPF)
Bit depth                                : 16 bits
Compression mode                         : Lossless
Stream size                              : 310 MiB (5%)
Title                                    : English
Writing library                          : libFLAC 1.2.1 (UTC 2007-09-17)
Language                                 : English
Default                                  : No
Forced                                   : No

Audio #4
ID                                       : 5
Format                                   : FLAC
Format/Info                              : Free Lossless Audio Codec
Codec ID                                 : A_FLAC
Duration                                 : 1 h 28 min
Bit rate mode                            : Variable
Bit rate                                 : 440 kb/s
Channel(s)                               : 2 channels
Channel layout                           : L R
Sampling rate                            : 48.0 kHz
Frame rate                               : 11.719 FPS (4096 SPF)
Bit depth                                : 16 bits
Compression mode                         : Lossless
Stream size                              : 280 MiB (4%)
Title                                    : Mandarin
Writing library                          : libFLAC 1.2.1 (UTC 2007-09-17)
Language                                 : Chinese
Default                                  : No
Forced                                   : No

Audio #5
ID                                       : 6
Format                                   : AAC LC
Format/Info                              : Advanced Audio Codec Low Complexity
Codec ID                                 : A_AAC-2
Duration                                 : 1 h 28 min
Bit rate                                 : 120 kb/s
Channel(s)                               : 2 channels
Channel layout                           : L R
Sampling rate                            : 48.0 kHz
Frame rate                               : 46.875 FPS (1024 SPF)
Compression mode                         : Lossy
Delay relative to video                  : 9 ms
Stream size                              : 76.3 MiB (1%)
Title                                    : English Commentary by Frank Djeng
Language                                 : English
Default                                  : No
Forced                                   : No

Audio #6
ID                                       : 7
Format                                   : AAC LC
Format/Info                              : Advanced Audio Codec Low Complexity
Codec ID                                 : A_AAC-2
Duration                                 : 1 h 28 min
Bit rate                                 : 132 kb/s
Channel(s)                               : 2 channels
Channel layout                           : L R
Sampling rate                            : 48.0 kHz
Frame rate                               : 46.875 FPS (1024 SPF)
Compression mode                         : Lossy
Delay relative to video                  : 9 ms
Stream size                              : 84.4 MiB (1%)
Title                                    : English Commentary by Ronny Yu
Language                                 : English
Default                                  : No
Forced                                   : No

Audio #7
ID                                       : 8
Format                                   : AAC LC
Format/Info                              : Advanced Audio Codec Low Complexity
Codec ID                                 : A_AAC-2
Duration                                 : 1 h 28 min
Bit rate                                 : 109 kb/s
Channel(s)                               : 2 channels
Channel layout                           : L R
Sampling rate                            : 48.0 kHz
Frame rate                               : 46.875 FPS (1024 SPF)
Compression mode                         : Lossy
Delay relative to video                  : 9 ms
Stream size                              : 69.1 MiB (1%)
Title                                    : English Commentary by Frank Djeng and David Wu
Language                                 : English
Default                                  : No
Forced                                   : No

Text #1
ID                                       : 9
Format                                   : UTF-8
Codec ID                                 : S_TEXT/UTF8
Codec ID/Info                            : UTF-8 Plain Text
Duration                                 : 1 h 28 min
Bit rate                                 : 52 b/s
Count of elements                        : 892
Stream size                              : 33.9 KiB (0%)
Title                                    : English
Language                                 : English
Default                                  : Yes
Forced                                   : Yes

Text #2
ID                                       : 10
Format                                   : PGS
Muxing mode                              : zlib
Codec ID                                 : S_HDMV/PGS
Codec ID/Info                            : Picture based subtitle format used on BDs/HD-DVDs
Duration                                 : 1 h 28 min
Bit rate                                 : 15.9 kb/s
Count of elements                        : 1784
Stream size                              : 10.1 MiB (0%)
Title                                    : English
Language                                 : English
Default                                  : No
Forced                                   : No

Menu
00:00:00.000                             : en:00:00:00.000
00:07:58.186                             : en:00:07:58.186
00:21:30.998                             : en:00:21:30.998
00:34:07.921                             : en:00:34:07.921
00:44:04.392                             : en:00:44:04.392
00:57:24.316                             : en:00:57:24.316
01:07:13.112                             : en:01:07:13.112
01:16:55.402                             : en:01:16:55.402
01:23:16.200                             : en:01:23:16.200
[/url]



                                                                                                                                                                                                        
                                                                                                                                                                                                                                                                                                                                                                                                                                                                                                                                                                                                                                                                                                                                                                                                                                                         a717946bd9188627a431992f8081b594.zip (33.96 KB, 下载次数: 0)

回复

使用道具 举报

小黑屋|百度云资源论坛 |网站地图

本网站所有资源来自网络,如无意中侵犯了您的权益,请发邮件至 [email protected],立即清除相关链接

GMT+8, 2020-12-3 08:40 , Processed in 0.109688 second(s), 23 queries .

Powered by Discuz! X3.2

© 2001-2013 Comsenz Inc.

快速回复 返回顶部 返回列表