百度云资源论坛

 找回密码
 立即注册
搜索

侦探 Detective.1985.720p.BluRay.x264-BiPOLAR 6.32GB

[复制链接]
百度云电影 发表于 2020-11-16 10:02:30 | 显示全部楼层 |阅读模式
帖子完整标题:侦探 Detective.1985.720p.BluRay.x264-BiPOLAR 6.32GB


[/url]

◎译  名 侦探/Detective
◎片  名 Détective
◎年  代 1985
◎产  地 法国,瑞士
◎类  别 剧情 / 喜剧 / 犯罪
◎语  言 法语,英语,意大利语
◎上映日期 1985-05-10(戛纳电影节)
◎IMDb评分  5.9/10 from 1714 users
◎  
◎豆瓣评分 6.8/10 from 335 users
◎ 
◎片  长 95分钟
◎导  演 让-吕克·戈达尔 Jean-Luc Godard
◎编  剧 阿兰·萨德 Alain Sarde / 菲利普·塞特邦 Philippe Setbon / 让-吕克·戈达尔 Jean-Luc Godard / 安娜-玛丽·米埃维尔 Anne-Marie Miéville
◎主  演 洛朗·特兹弗 Laurent Terzieff
       奥蕾勒·多阿藏 Aurelle Doazan
       让-皮埃尔·利奥德 Jean-Pierre Léaud
       纳塔莉·贝伊 Nathalie Baye
       克洛德·布拉瑟 Claude Brasseur
       约翰尼·哈里戴 Johnny Hallyday
       阿兰·居尼 Alain Cuny
       格扎维埃·圣-马卡里 Xavier Saint-Macary
       斯特凡纳·费拉拉 Stéphane Ferrara
       艾玛纽尔·塞尼耶 Emmanuelle Seigner
       朱莉·德尔佩 Julie Delpy
       安-吉赛尔·格拉斯 Ann-Gisel Glass

◎标  签 法国 | 戈达尔 | 法国电影 | 让-吕克·戈达尔 | Jean-Luc_Godard | JeanLucGodard | 1985 | 1980s

◎简  介

  在一座巴黎的宫殿里,两名侦探正调查一次两年的谋杀。埃米尔和弗朗西斯正对吉姆·福克斯·沃纳进行调查,欠他们大量钱的一位拳击手施加压力,但是吉姆也欠黑手党钱,并且他依赖拳击比赛来摆脱困境是不够的。

◎获奖情况

  第38届戛纳电影节 ?(1985)
  主竞赛单元金棕榈奖(提名) 让-吕克·戈达尔
Video
ID                                       : 1
Format                                   : AVC
Format/Info                              : Advanced Video Codec
Format profile                           :
Format settings                          : CABAC / 12 Ref Frames
Format settings, CABAC                   : Yes
Format settings, Reference frames        : 12 frames
Codec ID                                 : V_MPEG4/ISO/AVC
Duration                                 : 1 h 38 min
Bit rate                                 : 7 811 kb/s
Width                                    : 956 pixels
Height                                   : 720 pixels
Display aspect ratio                     : 4:3
Frame rate mode                          : Constant
Frame rate                               : 23.976 (24000/1001/189150) FPS
Color space                              : YUV
Chroma subsampling                       : 4:2:0
Bit depth                                : 8 bits
Scan type                                : Progressive
Bits/(Pixel*Frame)                       : 0.473
Stream size                              : 5.37 GiB (85%)
Writing library                          : x264 core 161 r3027 4121277
Encoding settings                        : cabac=1 / ref=12 / deblock=1:-3:-3 / analyse=0x3:0x133 / me=umh / subme=10 / psy=1 / psy_rd=1.00:0.15 / mixed_ref=1 / me_range=24 / chroma_me=1 / trellis=2 / 8x8dct=1 / cqm=0 / deadzone=21,11 / fast_pskip=1 / chroma_qp_offset=-3 / threads=18 / lookahead_threads=3 / sliced_threads=0 / nr=0 / decimate=1 / interlaced=0 / bluray_compat=0 / constrained_intra=0 / bframes=8 / b_pyramid=2 / b_adapt=2 / b_bias=0 / direct=3 / weightb=1 / open_gop=0 / weightp=2 / keyint=250 / keyint_min=23 / scenecut=40 / intra_refresh=0 / rc_lookahead=60 / rc=crf / mbtree=1 / crf=17.0 / qcomp=0.60 / qpmin=0 / qpmax=69 / qpstep=4 / ip_ratio=1.40 / aq=3:0.50
Language                                 : English
Default                                  : Yes
Forced                                   : No

Audio
ID                                       : 2
Format                                   : FLAC
Format/Info                              : Free Lossless Audio Codec
Codec ID                                 : A_FLAC
Duration                                 : 1 h 38 min
Bit rate mode                            : Variable
Bit rate                                 : 1 334 kb/s
Channel(s)                               : 2 channels
Channel layout                           : L R
Sampling rate                            : 48.0 kHz
Frame rate                               : 11.719 FPS (4096 SPF)
Bit depth                                : 24 bits
Compression mode                         : Lossless
Stream size                              : 940 MiB (15%)
Writing library                          : libFLAC 1.2.1 (UTC 2007-09-17)
Language                                 : French
Default                                  : Yes
Forced                                   : No

Text #1
ID                                       : 3
Format                                   : UTF-8
Codec ID                                 : S_TEXT/UTF8
Codec ID/Info                            : UTF-8 Plain Text
Duration                                 : 1 h 37 min
Bit rate                                 : 48 b/s
Count of elements                        : 1238
Stream size                              : 34.8 KiB (0%)
Title                                    : English
Language                                 : English
Default                                  : Yes
Forced                                   : Yes

Text #2
ID                                       : 4
Format                                   : PGS
Muxing mode                              : zlib
Codec ID                                 : S_HDMV/PGS
Codec ID/Info                            : Picture based subtitle format used on BDs/HD-DVDs
Duration                                 : 1 h 37 min
Bit rate                                 : 41.4 kb/s
Count of elements                        : 2476
Stream size                              : 28.9 MiB (0%)
Title                                    : English
Language                                 : English
Default                                  : No
Forced                                   : No

Menu
00:00:00.000                             : en:00:00:00.000
00:10:51.317                             : en:00:10:51.317
00:18:59.930                             : en:00:18:59.930
00:30:42.424                             : en:00:30:42.424
00:39:58.104                             : en:00:39:58.104
00:49:04.275                             : en:00:49:04.275
00:59:12.966                             : en:00:59:12.966
01:09:06.267                             : en:01:09:06.267
01:21:03.567                             : en:01:21:03.567
01:28:58.667                             : en:01:28:58.667
[/url]



                                                                                                                                                                                                        
                                                                                                                                                                                                                                                                                                                                                                                                                                                                                                                                                                                                                                                                                                                                                                                                                                                         aedd65d76dc149aa33ed804a91b17595.zip (32.27 KB, 下载次数: 0)

回复

使用道具 举报

小黑屋|百度云资源论坛 |网站地图

本网站所有资源来自网络,如无意中侵犯了您的权益,请发邮件至 [email protected],立即清除相关链接

GMT+8, 2020-11-27 07:56 , Processed in 0.114221 second(s), 23 queries .

Powered by Discuz! X3.2

© 2001-2013 Comsenz Inc.

快速回复 返回顶部 返回列表