百度云资源论坛

 找回密码
 立即注册
搜索

寻找塔奇奥 In.Search.of.Tadzio.1970.720p.BluRay.x264-BiPOLAR 933.75MB

[复制链接]
百度云资源 发表于 2020-11-16 10:02:30 | 显示全部楼层 |阅读模式
帖子完整标题:寻找塔奇奥 In.Search.of.Tadzio.1970.720p.BluRay.x264-BiPOLAR 933.75MB


[/url]

◎译  名 寻找塔奇奥
◎片  名 Alla ricerca di Tadzio
◎年  代 1970
◎产  地 意大利
◎类  别 纪录片 / 短片
◎语  言 意大利语
◎上映日期 1970-06-07(意大利)
◎IMDb评分  6.5/10 from 143 users
◎  
◎豆瓣评分 7.6/10 from 146 users
◎ 
◎片  长 30分钟
◎导  演 卢基诺·维斯康蒂 Luchino Visconti
◎主  演 卢基诺·维斯康蒂 Luchino Visconti
       伯恩·安德森 Bj?rn Andrésen

◎标  签 纪录片 | 意大利 | 短片 | 寻找塔奇奥 | LuchinoVisconti | 1970s | 维斯康蒂 | 卢奇诺·维斯康蒂

◎简  介

  暂无相关剧情介绍
Video
ID                                       : 1
Format                                   : AVC
Format/Info                              : Advanced Video Codec
Format profile                           :
Format settings                          : CABAC / 11 Ref Frames
Format settings, CABAC                   : Yes
Format settings, Reference frames        : 11 frames
Codec ID                                 : V_MPEG4/ISO/AVC
Duration                                 : 30 min 26 s
Bit rate                                 : 4 085 kb/s
Width                                    : 972 pixels
Height                                   : 720 pixels
Display aspect ratio                     : 4:3
Frame rate mode                          : Constant
Frame rate                               : 23.976 (24000/1001/189150) FPS
Color space                              : YUV
Chroma subsampling                       : 4:2:0
Bit depth                                : 8 bits
Scan type                                : Progressive
Bits/(Pixel*Frame)                       : 0.243
Stream size                              : 889 MiB (95%)
Writing library                          : x264 core 161 r3027 4121277
Encoding settings                        : cabac=1 / ref=11 / deblock=1:-3:-3 / analyse=0x3:0x133 / me=umh / subme=10 / psy=1 / psy_rd=1.00:0.15 / mixed_ref=1 / me_range=24 / chroma_me=1 / trellis=2 / 8x8dct=1 / cqm=0 / deadzone=21,11 / fast_pskip=1 / chroma_qp_offset=-3 / threads=18 / lookahead_threads=3 / sliced_threads=0 / nr=0 / decimate=1 / interlaced=0 / bluray_compat=0 / constrained_intra=0 / bframes=8 / b_pyramid=2 / b_adapt=2 / b_bias=0 / direct=3 / weightb=1 / open_gop=0 / weightp=2 / keyint=250 / keyint_min=23 / scenecut=40 / intra_refresh=0 / rc_lookahead=60 / rc=crf / mbtree=1 / crf=20.2 / qcomp=0.60 / qpmin=0 / qpmax=69 / qpstep=4 / ip_ratio=1.40 / aq=3:0.50
Language                                 : English
Default                                  : Yes
Forced                                   : No

Audio
ID                                       : 2
Format                                   : AC-3
Format/Info                              : Audio Coding 3
Commercial name                          : Dolby Digital
Codec ID                                 : A_AC3
Duration                                 : 30 min 26 s
Bit rate mode                            : Constant
Bit rate                                 : 192 kb/s
Channel(s)                               : 1 channel
Channel layout                           : C
Sampling rate                            : 48.0 kHz
Frame rate                               : 31.250 FPS (1536 SPF)
Compression mode                         : Lossy
Stream size                              : 41.8 MiB (4%)
Language                                 : Italian
Service kind                             : Complete Main
Default                                  : Yes
Forced                                   : No

Text #1
ID                                       : 3
Format                                   : UTF-8
Codec ID                                 : S_TEXT/UTF8
Codec ID/Info                            : UTF-8 Plain Text
Duration                                 : 30 min 5 s
Bit rate                                 : 72 b/s
Count of elements                        : 362
Stream size                              : 16.0 KiB (0%)
Title                                    : English
Language                                 : English
Default                                  : Yes
Forced                                   : Yes

Text #2
ID                                       : 4
Format                                   : PGS
Muxing mode                              : zlib
Codec ID                                 : S_HDMV/PGS
Codec ID/Info                            : Picture based subtitle format used on BDs/HD-DVDs
Duration                                 : 30 min 5 s
Bit rate                                 : 10.1 kb/s
Count of elements                        : 724
Stream size                              : 2.16 MiB (0%)
Title                                    : English
Language                                 : English
Default                                  : No
Forced                                   : No
[/url]



                                                                                                                                                                                                        
                                                                                                                                                                                                                                                                                                                                                                                                                                                                                                                                                                                                                                                                                                                                                                                                                                                         8fed084048a8a9786986b2e15b5ad625.zip (18.94 KB, 下载次数: 0)

回复

使用道具 举报

小黑屋|百度云资源论坛 |网站地图

本网站所有资源来自网络,如无意中侵犯了您的权益,请发邮件至 [email protected],立即清除相关链接

GMT+8, 2020-11-27 07:11 , Processed in 0.100146 second(s), 23 queries .

Powered by Discuz! X3.2

© 2001-2013 Comsenz Inc.

快速回复 返回顶部 返回列表