百度云资源论坛

 找回密码
 立即注册
搜索

報仇 Vengeance.1970.720p.BluRay.x264-BiPOLAR 3.63GB

[复制链接]
百度云电影 发表于 2020-11-16 10:02:30 | 显示全部楼层 |阅读模式
帖子完整标题:報仇 Vengeance.1970.720p.BluRay.x264-BiPOLAR 3.63GB


[/url]

◎译  名 报仇/Kung Fu Vengeance/Vengeance/Vengeance!/武生
◎片  名 報仇
◎年  代 1970
◎产  地 中国香港
◎类  别 剧情 / 动作 / 爱情
◎语  言 汉语普通话,粤语
◎上映日期 1970-05-14
◎IMDb评分  7.1/10 from 559 users
◎  
◎豆瓣评分 7.8/10 from 2792 users
◎ 
◎片  长 98分钟
◎导  演 张彻 Cheh Chang
◎编  剧 张彻 Cheh Chang
◎主  演 姜大卫 David Chiang
       狄龙 Lung Ti
       谷峰 Feng Ku
       金军 Chun Chin
       朱今 Chin Chu
       张石庵 Shih-Ou Chang
       刘准 Cheun Lau
       齐琳 Chai Lam
       龙逸升 Tang Tak-Cheung
       王青 Ching Wong
       戚毅雄 Ngai-Hung Chik
       杨柏尘 Pak-Chan Yeung
       卢慧 Lo Wai
       罗强 Chiang Lo
       刘俊辉 Chun Fai Lau
       伍元勋 Ng Yuen-Fan
       陈绍佳 Shao-Chia Chen
       岑潜波 Chien-Po Tsen
       梁尚云 Shang-yun Liang
       张志平 Chi Ping Chang
       袁信义 Shun-Yee Yuen
       汪萍 Ping Wong
       郝履仁 Li Jen Ho
       冯克安 Hark-On Fung
       袁祥仁 Cheung-Yan Yuen
       陈全 Chuan Chen
       黄培基 Pei Chi Huang
       何柏光 Pak-Kwong Ho
       钱似莺 Tsi-Ang Chin
       李超俊 Chiao Chun Li
       谭宝 Bo Tam
       蓝伟烈  Wei Lien Lan
       区燕青 Yen-ching Ou

◎标  签 张彻 | 邵氏 | 姜大卫 | 香港 | 狄龙 | 香港电影 | 武侠 | 1970

◎简  介

  京剧武生关玉楼(狄龙)的猝死引来其弟关小楼(姜大卫)对两人过往点滴的深情回忆,伤情之余,小楼在蛛丝马迹中发现其兄之死可能另有隐情,展开调查,发现真相是与嫂子花正芬(区燕青)有染的国术馆长封开山(谷峰)联合金志全(杨志卿)等人设计将玉楼害死,决意为兄报仇。
  
  由于杀害玉楼的凶手众多,小楼误中奸计,险象环生,幸得花正芬的胞妹花正芳(汪萍)用美人计诱敌,才终将封开山杀死。金志全怕小楼向自己下手,假称杀害玉楼的幕后主脑人实为大帅胡智虎。小楼深知金志全老奸巨滑,口上答应与他合谋除去胡智虎,一场关乎两人生死的赌局展开。
Video
ID                                       : 1
Format                                   : AVC
Format/Info                              : Advanced Video Codec
Format profile                           :
Format settings                          : CABAC / 12 Ref Frames
Format settings, CABAC                   : Yes
Format settings, Reference frames        : 12 frames
Codec ID                                 : V_MPEG4/ISO/AVC
Duration                                 : 1 h 38 min
Bit rate                                 : 4 845 kb/s
Width                                    : 1 280 pixels
Height                                   : 544 pixels
Display aspect ratio                     : 2.35:1
Frame rate mode                          : Constant
Frame rate                               : 25.000 FPS
Color space                              : YUV
Chroma subsampling                       : 4:2:0
Bit depth                                : 8 bits
Scan type                                : Progressive
Bits/(Pixel*Frame)                       : 0.278
Stream size                              : 3.32 GiB (91%)
Writing library                          : x264 core 161 r3027 4121277
Encoding settings                        : cabac=1 / ref=12 / deblock=1:-3:-3 / analyse=0x3:0x133 / me=umh / subme=10 / psy=1 / psy_rd=1.00:0.15 / mixed_ref=1 / me_range=24 / chroma_me=1 / trellis=2 / 8x8dct=1 / cqm=0 / deadzone=21,11 / fast_pskip=1 / chroma_qp_offset=-3 / threads=17 / lookahead_threads=2 / sliced_threads=0 / nr=0 / decimate=1 / interlaced=0 / bluray_compat=0 / constrained_intra=0 / bframes=8 / b_pyramid=2 / b_adapt=2 / b_bias=0 / direct=3 / weightb=1 / open_gop=0 / weightp=2 / keyint=250 / keyint_min=25 / scenecut=40 / intra_refresh=0 / rc_lookahead=60 / rc=crf / mbtree=1 / crf=14.0 / qcomp=0.60 / qpmin=0 / qpmax=69 / qpstep=4 / ip_ratio=1.40 / aq=3:0.60
Language                                 : English
Default                                  : Yes
Forced                                   : No

Audio
ID                                       : 2
Format                                   : FLAC
Format/Info                              : Free Lossless Audio Codec
Codec ID                                 : A_FLAC
Duration                                 : 1 h 38 min
Bit rate mode                            : Variable
Bit rate                                 : 443 kb/s
Channel(s)                               : 2 channels
Channel layout                           : L R
Sampling rate                            : 48.0 kHz
Frame rate                               : 11.719 FPS (4096 SPF)
Bit depth                                : 16 bits
Compression mode                         : Lossless
Stream size                              : 311 MiB (8%)
Title                                    : Mandarin
Writing library                          : libFLAC 1.2.1 (UTC 2007-09-17)
Language                                 : Chinese
Default                                  : Yes
Forced                                   : No

Text #1
ID                                       : 3
Format                                   : UTF-8
Codec ID                                 : S_TEXT/UTF8
Codec ID/Info                            : UTF-8 Plain Text
Duration                                 : 1 h 33 min
Bit rate                                 : 24 b/s
Count of elements                        : 602
Stream size                              : 16.7 KiB (0%)
Title                                    : English
Language                                 : English
Default                                  : Yes
Forced                                   : Yes

Text #2
ID                                       : 4
Format                                   : PGS
Muxing mode                              : zlib
Codec ID                                 : S_HDMV/PGS
Codec ID/Info                            : Picture based subtitle format used on BDs/HD-DVDs
Duration                                 : 1 h 33 min
Bit rate                                 : 5 950 b/s
Count of elements                        : 1204
Stream size                              : 3.99 MiB (0%)
Title                                    : English
Language                                 : English
Default                                  : No
Forced                                   : No

Menu
00:00:00.000                             : en:00:00:00.000
00:08:43.000                             : en:00:08:43.000
00:18:12.000                             : en:00:18:12.000
00:43:33.000                             : en:00:43:33.000
00:53:55.000                             : en:00:53:55.000
01:05:11.000                             : en:01:05:11.000
01:17:02.000                             : en:01:17:02.000
01:28:27.000                             : en:01:28:27.000
[/url]



                                                                                                                                                                                                        
                                                                                                                                                                                                                                                                                                                                                                                                                                                                                                                                                                                                                                                                                                                                                                                                                                                         3cd77a43e28bdfe51876a332f7df9bc3.zip (37 KB, 下载次数: 0)

回复

使用道具 举报

小黑屋|百度云资源论坛 |网站地图

本网站所有资源来自网络,如无意中侵犯了您的权益,请发邮件至 [email protected],立即清除相关链接

GMT+8, 2020-11-27 08:18 , Processed in 0.116259 second(s), 23 queries .

Powered by Discuz! X3.2

© 2001-2013 Comsenz Inc.

快速回复 返回顶部 返回列表