百度云资源论坛

 找回密码
 立即注册
搜索

超级大国民 Super.Citizen.Ko.1995.720p.BluRay.x264-BiPOLAR 5.55GB

[复制链接]
百度云电影 发表于 2020-11-16 10:02:30 | 显示全部楼层 |阅读模式
帖子完整标题:超级大国民 Super.Citizen.Ko.1995.720p.BluRay.x264-BiPOLAR 5.55GB


[/url]

◎译  名 超级大国民/Super Citizen Ko
◎片  名 超級大國民
◎年  代 1995
◎产  地 中国台湾,中国大陆
◎类  别 剧情 / 历史
◎语  言 闽南语
◎上映日期 1996-09-13
◎IMDb评分  6.7/10 from 148 users
◎  
◎豆瓣评分 7.8/10 from 431 users
◎ 
◎片  长 121分钟
◎导  演 万仁 Wan Jen
◎编  剧 廖庆松 Ching-Song Liao / 万仁 Wan Jen
◎主  演 林扬 Yang Lin
       苏明明 Ming-ming Su
       柯一正 I-Chen Ko
       陈秋燕 Chiu-Yen Chen

◎标  签 台湾 | 台湾电影 | 万仁 | 历史 | 1995 | 吴念真 | 政治 | 台灣電影

◎简  介

  许毅生,一位50年代参与政治读书会而被判无期徒刑的老人,在当年抓人过程中出卖好友陈政一,以致陈被,枪决而下落不明。许关满16年出狱后,因愧疚而自囚于养老院10多年。他搬回女儿秀琴家中后,开始一一探访难友。此时,秀琴之夫因贿选而遭羁押禁见,秀琴情绪终于爆发,重提父亲因政治而被判终身狱,与母亲离婚,导致母亲自杀,秀琴自小孤苦伶仃。许对女儿的责难,无言以对。之后许终于寻获陈之墓地,跪拜烧冥纸求恕后,返回家中已心力交瘁,入门即累倒在地,秀琴扶老父入房,无意中翻见桌上日记,始体会父亲多年来对老友、妻女之愧歉,望见床上奄奄一息老父……

◎获奖情况

  第32届台北金马影展 ?(1995)
  金马奖最佳剧情片(提名)
  金马奖最佳导演(提名) 万仁
  金马奖最佳男主角 林扬
  金马奖最佳女配角(提名) 苏明明
  金马奖最佳原著剧本(提名) 万仁?/?廖庆松?/?吴念真
  金马奖最佳原创配乐 李寿全?/?范宗沛
  金马奖最佳音效(提名) 杜笃之
  
  第8届东京国际电影节 ?(1995)
  主竞赛单元最佳影片(提名) 万仁
Video
ID                                       : 1
Format                                   : AVC
Format/Info                              : Advanced Video Codec
Format profile                           :
Format settings                          : CABAC / 9 Ref Frames
Format settings, CABAC                   : Yes
Format settings, Reference frames        : 9 frames
Codec ID                                 : V_MPEG4/ISO/AVC
Duration                                 : 2 h 0 min
Bit rate                                 : 5 954 kb/s
Width                                    : 1 280 pixels
Height                                   : 692 pixels
Display aspect ratio                     : 1.85:1
Frame rate mode                          : Constant
Frame rate                               : 24.000 FPS
Color space                              : YUV
Chroma subsampling                       : 4:2:0
Bit depth                                : 8 bits
Scan type                                : Progressive
Bits/(Pixel*Frame)                       : 0.280
Stream size                              : 5.00 GiB (90%)
Writing library                          : x264 core 161 r3027 4121277
Encoding settings                        : cabac=1 / ref=9 / deblock=1:-3:-3 / analyse=0x3:0x133 / me=umh / subme=10 / psy=1 / psy_rd=1.00:0.15 / mixed_ref=1 / me_range=24 / chroma_me=1 / trellis=2 / 8x8dct=1 / cqm=0 / deadzone=21,11 / fast_pskip=1 / chroma_qp_offset=-3 / threads=18 / lookahead_threads=3 / sliced_threads=0 / nr=0 / decimate=1 / interlaced=0 / bluray_compat=0 / constrained_intra=0 / bframes=8 / b_pyramid=2 / b_adapt=2 / b_bias=0 / direct=3 / weightb=1 / open_gop=0 / weightp=2 / keyint=250 / keyint_min=24 / scenecut=40 / intra_refresh=0 / rc_lookahead=60 / rc=crf / mbtree=1 / crf=18.0 / qcomp=0.60 / qpmin=0 / qpmax=69 / qpstep=4 / ip_ratio=1.40 / aq=3:0.50
Language                                 : English
Default                                  : Yes
Forced                                   : No
Color range                              : Limited
Matrix coefficients                      : BT.709

Audio
ID                                       : 2
Format                                   : AC-3
Format/Info                              : Audio Coding 3
Commercial name                          : Dolby Digital
Codec ID                                 : A_AC3
Duration                                 : 2 h 0 min
Bit rate mode                            : Constant
Bit rate                                 : 640 kb/s
Channel(s)                               : 6 channels
Channel layout                           : L R C LFE Ls Rs
Sampling rate                            : 48.0 kHz
Frame rate                               : 31.250 FPS (1536 SPF)
Compression mode                         : Lossy
Stream size                              : 550 MiB (10%)
Title                                    : Min Nan
Language                                 : Chinese
Service kind                             : Complete Main
Default                                  : Yes
Forced                                   : No

Text #1
ID                                       : 3
Format                                   : UTF-8
Codec ID                                 : S_TEXT/UTF8
Codec ID/Info                            : UTF-8 Plain Text
Duration                                 : 1 h 51 min
Bit rate                                 : 23 b/s
Count of elements                        : 471
Stream size                              : 18.9 KiB (0%)
Title                                    : English
Language                                 : English
Default                                  : Yes
Forced                                   : Yes

Text #2
ID                                       : 4
Format                                   : PGS
Muxing mode                              : zlib
Codec ID                                 : S_HDMV/PGS
Codec ID/Info                            : Picture based subtitle format used on BDs/HD-DVDs
Duration                                 : 1 h 51 min
Bit rate                                 : 5 706 b/s
Count of elements                        : 942
Stream size                              : 4.56 MiB (0%)
Title                                    : English
Language                                 : English
Default                                  : No
Forced                                   : No

Text #3
ID                                       : 5
Format                                   : PGS
Muxing mode                              : zlib
Codec ID                                 : S_HDMV/PGS
Codec ID/Info                            : Picture based subtitle format used on BDs/HD-DVDs
Duration                                 : 1 h 51 min
Bit rate                                 : 5 088 b/s
Count of elements                        : 942
Stream size                              : 4.07 MiB (0%)
Title                                    : Chinese (traditional)
Language                                 : Chinese
Default                                  : No
Forced                                   : No

Text #4
ID                                       : 6
Format                                   : PGS
Muxing mode                              : zlib
Codec ID                                 : S_HDMV/PGS
Codec ID/Info                            : Picture based subtitle format used on BDs/HD-DVDs
Duration                                 : 1 h 51 min
Bit rate                                 : 5 001 b/s
Count of elements                        : 942
Stream size                              : 4.00 MiB (0%)
Title                                    : Chinese (simplified)
Language                                 : Chinese
Default                                  : No
Forced                                   : No

Text #5
ID                                       : 7
Format                                   : PGS
Muxing mode                              : zlib
Codec ID                                 : S_HDMV/PGS
Codec ID/Info                            : Picture based subtitle format used on BDs/HD-DVDs
Duration                                 : 1 h 51 min
Bit rate                                 : 5 991 b/s
Count of elements                        : 942
Stream size                              : 4.79 MiB (0%)
Title                                    : Japanese
Language                                 : Japanese
Default                                  : No
Forced                                   : No

Menu
00:00:00.000                             : en:00:00:00.000
00:19:17.667                             : en:00:19:17.667
00:38:42.875                             : en:00:38:42.875
00:59:37.875                             : en:00:59:37.875
01:19:08.833                             : en:01:19:08.833
01:39:26.375                             : en:01:39:26.375




                                                                                                                                                                                                        
                                                                                                                                                                                                                                                                                                                                                                                                                                                                                                                                                                                                                                                                                                                                                                                                                                                         1828011e9e656c81aca0fc4f75129681.zip (28.46 KB, 下载次数: 0)

回复

使用道具 举报

小黑屋|百度云资源论坛 |网站地图

本网站所有资源来自网络,如无意中侵犯了您的权益,请发邮件至 [email protected],立即清除相关链接

GMT+8, 2020-11-27 07:36 , Processed in 0.107685 second(s), 23 queries .

Powered by Discuz! X3.2

© 2001-2013 Comsenz Inc.

快速回复 返回顶部 返回列表