百度云资源论坛

 找回密码
 立即注册
搜索

伊万的生活/堕落的狂喜 Ivansxtc.2000.EXTENDED.RERiP.720p.BluRay.x264...

[复制链接]
百度云电影 发表于 2020-11-16 10:02:30 | 显示全部楼层 |阅读模式
帖子完整标题:伊万的生活/堕落的狂喜 Ivansxtc.2000.EXTENDED.RERiP.720p.BluRay.x264-GAZER 4.81GB


[/url]

◎译  名 伊万的生活/堕落的狂喜
◎片  名 Ivansxtc
◎年  代 2000
◎产  地 英国,美国
◎类  别 剧情
◎语  言 英语
◎上映日期 2000-09-12
◎IMDb评分  6.4/10 from 1201 users
◎  
◎豆瓣评分 /10 from 0 users
◎ 
◎片  长 Canada: 94 分钟
◎导  演 伯纳德·罗斯 Bernard Rose
◎编  剧 伯纳德·罗斯 Bernard Rose / 列夫·托尔斯泰 Leo Tolstoy / 莉萨·艾诺斯 Lisa Enos
◎主  演 丹尼·赫斯顿 Danny Huston
       彼得·威勒 Peter Weller
       Trev Broudy
       维多利亚·希斯特德 Victoria Silvstedt
       安吉拉·范泽斯通 Angela Featherstone
       Sofia Eng
       罗伯特·格雷厄姆 Robert Graham
       萨拉·丹尼尔·马迪森 Sarah Danielle Madison
       Carol Rose
       James Merendino
       丹·爱尔兰 Dan Ireland
       丽莎·亨森 Lisa Henson
       蒂凡妮·西森 Tiffani Thiessen
       海蒂·乔·马克尔 Heidi Jo Markel
       伊拉·纽伯 Ira Newborn
       布兰登·巴雷拉 Brandon Barrera
       莉萨·艾诺斯 Lisa Enos
       亚当·克伦茨曼 Adam Krentzman
       瓦莱丽亚·戈利诺 Valeria Golino
       Andy Hirsch
       Jay Lavender

◎标  签 英国 | 2000 | SFZ | 英国电影 | 美国 | 罗伯特·帕丁森 | Leo_Tolstoy | Bernard_Rose

◎简  介

  暂无相关剧情介绍
Video
ID                                       : 1
Format                                   : AVC
Format/Info                              : Advanced Video Codec
Format profile                           :
Format settings                          : CABAC / 9 Ref Frames
Format settings, CABAC                   : Yes
Format settings, Reference frames        : 9 frames
Codec ID                                 : V_MPEG4/ISO/AVC
Duration                                 : 1 h 50 min
Bit rate                                 : 5 462 kb/s
Width                                    : 1 276 pixels
Height                                   : 720 pixels
Display aspect ratio                     : 16:9
Frame rate mode                          : Constant
Frame rate                               : 59.940 (60000/1001/189150) FPS
Color space                              : YUV
Chroma subsampling                       : 4:2:0
Bit depth                                : 8 bits
Scan type                                : Progressive
Bits/(Pixel*Frame)                       : 0.099
Stream size                              : 4.22 GiB (88%)
Writing library                          : x264 core 161 r3027 4121277
Encoding settings                        : cabac=1 / ref=9 / deblock=1:-3:-3 / analyse=0x3:0x133 / me=umh / subme=10 / psy=1 / psy_rd=1.20:0.00 / mixed_ref=1 / me_range=24 / chroma_me=1 / trellis=2 / 8x8dct=1 / cqm=0 / deadzone=21,11 / fast_pskip=0 / chroma_qp_offset=-2 / threads=22 / lookahead_threads=3 / sliced_threads=0 / nr=0 / decimate=0 / interlaced=0 / bluray_compat=0 / constrained_intra=0 / bframes=8 / b_pyramid=2 / b_adapt=2 / b_bias=0 / direct=3 / weightb=1 / open_gop=0 / weightp=2 / keyint=250 / keyint_min=25 / scenecut=40 / intra_refresh=0 / rc=crf / mbtree=0 / crf=18.0 / qcomp=0.60 / qpmin=0 / qpmax=69 / qpstep=4 / ip_ratio=1.40 / pb_ratio=1.30 / aq=3:0.90
Default                                  : Yes
Forced                                   : No
Color range                              : Limited
Matrix coefficients                      : BT.709

Audio #1
ID                                       : 2
Format                                   : AC-3
Format/Info                              : Audio Coding 3
Commercial name                          : Dolby Digital
Codec ID                                 : A_AC3
Duration                                 : 1 h 50 min
Bit rate mode                            : Constant
Bit rate                                 : 640 kb/s
Channel(s)                               : 6 channels
Channel layout                           : L R C LFE Ls Rs
Sampling rate                            : 48.0 kHz
Frame rate                               : 31.250 FPS (1536 SPF)
Compression mode                         : Lossy
Stream size                              : 506 MiB (10%)
Language                                 : English
Service kind                             : Complete Main
Default                                  : Yes
Forced                                   : No

Audio #2
ID                                       : 3
Format                                   : AAC LC
Format/Info                              : Advanced Audio Codec Low Complexity
Codec ID                                 : A_AAC-2
Duration                                 : 1 h 50 min
Bit rate                                 : 91.8 kb/s
Channel(s)                               : 2 channels
Channel layout                           : L R
Sampling rate                            : 48.0 kHz
Frame rate                               : 46.875 FPS (1024 SPF)
Compression mode                         : Lossy
Delay relative to video                  : 20 ms
Stream size                              : 72.7 MiB (1%)
Title                                    : Commentary
Language                                 : English
Default                                  : No
Forced                                   : No

Text #1
ID                                       : 4
Format                                   : PGS
Muxing mode                              : zlib
Codec ID                                 : S_HDMV/PGS
Codec ID/Info                            : Picture based subtitle format used on BDs/HD-DVDs
Duration                                 : 1 h 49 min
Bit rate                                 : 42.5 kb/s
Count of elements                        : 3773
Stream size                              : 33.2 MiB (1%)
Title                                    : SDH
Language                                 : English
Default                                  : No
Forced                                   : No

Text #2
ID                                       : 5
Format                                   : PGS
Muxing mode                              : zlib
Codec ID                                 : S_HDMV/PGS
Codec ID/Info                            : Picture based subtitle format used on BDs/HD-DVDs
Duration                                 : 1 h 49 min
Bit rate                                 : 28.7 kb/s
Count of elements                        : 2487
Stream size                              : 22.5 MiB (0%)
Title                                    : SDH
Language                                 : English
Default                                  : No
Forced                                   : No

Menu
00:00:00.000                             : en:Chapter 01
00:07:58.511                             : en:Chapter 02
00:22:45.497                             : en:Chapter 03
00:29:03.442                             : en:Chapter 04
00:33:17.329                             : en:Chapter 05
00:51:23.347                             : en:Chapter 06
00:58:43.787                             : en:Chapter 07
01:10:08.171                             : en:Chapter 08
01:19:39.007                             : en:Chapter 09
01:29:14.949                             : en:Chapter 10
01:36:02.123                             : en:Chapter 11
01:41:05.026                             : en:Chapter 12
[/url]



                                                                                                                                                                                                        
                                                                                                                                                                                                                                                                                                                                                                                                                                                                                                                                                                                                                                                                                                                                                                                                                                                         1411e9be465aca45793f2b8fb535578f.zip (48.79 KB, 下载次数: 0)

回复

使用道具 举报

小黑屋|百度云资源论坛 |网站地图

本网站所有资源来自网络,如无意中侵犯了您的权益,请发邮件至 [email protected],立即清除相关链接

GMT+8, 2020-11-27 08:38 , Processed in 0.108133 second(s), 23 queries .

Powered by Discuz! X3.2

© 2001-2013 Comsenz Inc.

快速回复 返回顶部 返回列表