百度云资源论坛

 找回密码
 立即注册
搜索

试着死了一次 Not.Quite.Dead.Yet.2020.JAPANESE.1080p.BluRay.x264.DTS-PTH...

[复制链接]
百度云资源 发表于 2020-11-14 09:55:14 | 显示全部楼层 |阅读模式
帖子完整标题:试着死了一次 Not.Quite.Dead.Yet.2020.JAPANESE.1080p.BluRay.x264.DTS-PTH 8.94GB


[/url]

◎译  名 试着死了一次/Not Quite Dead Yet/老豆死开一阵先(港)/靠北少女(台)
◎片  名 一度死んでみた
◎年  代 2020
◎产  地 日本
◎类  别 喜剧
◎语  言 日语
◎上映日期 2020-03-20(日本)
◎IMDb评分  5.9/10 from 162 users
◎  
◎豆瓣评分 6.3/10 from 883 users
◎ 
◎片  长 93分钟
◎导  演 浜崎慎治 Hamasaki Shinji
◎编  剧 泽本嘉光 Yoshimitsu Sawamoto
◎主  演 广濑铃 Suzu Hirose
       堤真一 Shin'ichi Tsutsumi
       吉泽亮 Yoshizawa Ryo
       松田翔太 Shota Matsuda
       西野七濑 Nanase Nishino
       木村多江 Tae Kimura
       城田优 Yuu Shirota
       佐藤健 Takeru Satoh
       池田依来沙 Elaiza Ikeda
       妻夫木聪 Satoshi Tsumabuki
       志尊淳 Jun Shison
       古田新太 Arata Furuta
       竹中直人 Naoto Takenaka
       中川雅也 Lily Franky
       小泽征悦 Yukiyoshi Ozawa
       岛田久作 Ky?saku Shimada
       加藤谅 Ry? Kat?
       绪方义博 Denden
       柄本时生 Tokio Emoto
       前野朋哉 Tomoya Maeno
       清水伸 Shin Shimizu
       原日出子 Hideko Hara
       真壁伸也 Togi Makabe
       本间朋晃
       野口聪一
       大友康平 Kohei Otomo
       安藤ニコ Nico Ando

◎标  签 日本 | 2020 | 日本电影 | 喜剧 | 广濑铃 | 日影 | 广濑丝丝 | 吉泽亮

◎简  介

  一位叛逆少女(广濑铃饰)的父亲(堤真一饰)因为公司内部的盗窃问题而伤透脑筋,因此决定要试用一款会让自己暂时处于死亡状态的药物,却没想到意外竟然发生了,父亲就快要死亡了!
  
  每天希望爸爸消失的叛逆少女,这次被逼迫着要接下爸爸的事业,感受到庞大压力的女孩,最苦恼的就是要如何才能让爸爸再次回到他身边呢?
Video
ID                                       : 1
Format                                   : AVC
Format/Info                              : Advanced Video Codec
Format profile                           :
Format settings                          : CABAC / 4 Ref Frames
Format settings, CABAC                   : Yes
Format settings, Reference frames        : 4 frames
Codec ID                                 : V_MPEG4/ISO/AVC
Duration                                 : 1 h 32 min
Bit rate                                 : 12.9 Mb/s
Width                                    : 1 920 pixels
Height                                   : 802 pixels
Display aspect ratio                     : 2.40:1
Frame rate mode                          : Constant
Frame rate                               : 23.976 (24000/1001/189150) FPS
Color space                              : YUV
Chroma subsampling                       : 4:2:0
Bit depth                                : 8 bits
Scan type                                : Progressive
Bits/(Pixel*Frame)                       : 0.351
Stream size                              : 8.38 GiB (94%)
Writing library                          : x264 core 160 r3007+53 ab26477 t_mod_New [(8 & 10) X86_64]
Encoding settings                        : cabac=1 / ref=4 / deblock=1:-3:-3 / analyse=0x3:0x133 / me=umh / subme=11 / psy=1 / fade_compensate=0.00 / psy_rd=1.00:0.00 / mixed_ref=1 / me_range=48 / chroma_me=1 / trellis=2 / 8x8dct=1 / cqm=0 / deadzone=21,11 / fast_pskip=0 / chroma_qp_offset=-3 / threads=9 / lookahead_threads=2 / sliced_threads=0 / nr=0 / decimate=0 / interlaced=0 / bluray_compat=0 / constrained_intra=0 / fgo=0 / bframes=11 / b_pyramid=2 / b_adapt=2 / b_bias=0 / direct=3 / weightb=1 / open_gop=0 / weightp=2 / keyint=240 / keyint_min=1 / scenecut=40 / intra_refresh=0 / rc_lookahead=72 / rc=crf / mbtree=0 / crf=17.0000 / qcomp=0.65 / qpmin=0:0:0 / qpmax=69:69:69 / qpstep=4 / vbv_maxrate=62500 / vbv_bufsize=78125 / crf_max=0.0 / nal_hrd=none / filler=0 / ip_ratio=1.40 / pb_ratio=1.30 / aq=3:0.80 / aq-sensitivity=10.00 / aq-factor=1.00:1.00:1.00 / aq2=0 / aq3=0
Default                                  : Yes
Forced                                   : No

Audio
ID                                       : 2
Format                                   : DTS
Format/Info                              : Digital Theater Systems
Codec ID                                 : A_DTS
Duration                                 : 1 h 32 min
Bit rate mode                            : Constant
Bit rate                                 : 768 kb/s
Channel(s)                               : 6 channels
Channel layout                           : C L R Ls Rs LFE
Sampling rate                            : 48.0 kHz
Frame rate                               : 93.750 FPS (512 SPF)
Bit depth                                : 24 bits
Compression mode                         : Lossy
Stream size                              : 509 MiB (6%)
Language                                 : Japanese
Default                                  : Yes
Forced                                   : No

Text #1
ID                                       : 3
Format                                   : UTF-8
Codec ID                                 : S_TEXT/UTF8
Codec ID/Info                            : UTF-8 Plain Text
Duration                                 : 1 h 32 min
Bit rate                                 : 63 b/s
Count of elements                        : 1516
Stream size                              : 43.0 KiB (0%)
Title                                    : SRT
Language                                 : English
Default                                  : Yes
Forced                                   : No

Text #2
ID                                       : 4
Format                                   : PGS
Muxing mode                              : zlib
Codec ID                                 : S_HDMV/PGS
Codec ID/Info                            : Picture based subtitle format used on BDs/HD-DVDs
Duration                                 : 1 h 32 min
Bit rate                                 : 230 kb/s
Count of elements                        : 8971
Stream size                              : 152 MiB (2%)
Language                                 : Japanese
Default                                  : No
Forced                                   : No

Menu
00:00:00.000                             : en:Chapter 01
00:05:12.854                             : en:Chapter 02
00:10:27.585                             : en:Chapter 03
00:14:33.706                             : en:Chapter 04
00:20:12.545                             : en:Chapter 05
00:24:34.598                             : en:Chapter 06
00:32:20.021                             : en:Chapter 07
00:40:40.271                             : en:Chapter 08
00:46:37.128                             : en:Chapter 09
00:51:37.845                             : en:Chapter 10
00:58:43.311                             : en:Chapter 11
01:08:54.213                             : en:Chapter 12
01:19:24.009                             : en:Chapter 13
01:26:30.310                             : en:Chapter 14
01:28:54.746                             : en:Chapter 15
[/url][/url][/url]



                                                                                                                                                                                                        
                                                                                                                                                                                                                                                                                                                                                                                                                                                                                                                                                                                                                                                                                                                                                                                                                                                         3a6599d2ad2c38f2bcaeb2573227d216.zip (45.4 KB, 下载次数: 0)

回复

使用道具 举报

小黑屋|百度云资源论坛 |网站地图

本网站所有资源来自网络,如无意中侵犯了您的权益,请发邮件至 [email protected],立即清除相关链接

GMT+8, 2020-12-3 03:12 , Processed in 0.124378 second(s), 23 queries .

Powered by Discuz! X3.2

© 2001-2013 Comsenz Inc.

快速回复 返回顶部 返回列表