百度云资源论坛

 找回密码
 立即注册
搜索

鹿皮 Deerskin.2019.SUBBED.720p.BluRay.x264-PFa 1.48GB

[复制链接]
百度云资源 发表于 2020-11-14 09:19:44 | 显示全部楼层 |阅读模式
-->
帖子完整标题:鹿皮 Deerskin.2019.SUBBED.720p.BluRay.x264-PFa 1.48GB




◎译  名 鹿皮/Deerskin/鹿皮奇谈(台)/麂皮大导杀上瘾(港)
◎片  名 Le daim
◎年  代 2019
◎产  地 法国
◎类  别 喜剧
◎语  言 法语
◎上映日期 2019-05-15(戛纳电影节) / 2019-06-19(法国)
◎IMDb评分  6.7/10 from 5379 users
◎  https://www.imdb.com/title/tt8193790/
◎豆瓣评分 6.8/10 from 4711 users
◎ 
◎片  长 77分钟
◎导  演 昆汀·杜皮约 Quentin Dupieux
◎编  剧 昆汀·杜皮约 Quentin Dupieux
◎主  演 让·杜雅尔丹 Jean Dujardin
       阿黛拉·哈内尔 Adèle Haenel
       艾伯特·德尔佩 Albert Delpy
       科拉莉·吕西耶 Coralie Russier
       玛丽·布奈尔 Marie Bunel
       马克西姆·德瑞森 Maxim Driesen
       朱莉娅·福雷 Julia Faure
       塞夫·哈杰迪 Youssef Hajdi
       Maryne Cayon

◎标  签 法国 | 2019 | 喜剧 | 昆汀·杜皮约 | 法国电影 | 戛纳电影节 | 让·杜雅尔丹 | QuentinDupieux

◎简  介

  大叔一掷千金,买下古着麂皮褛,对新战衣爱到发烧,意想不到的事情就会发生。他不但跟战衣深情对话,还手执摄像机自拍「型到杀死人」,誓要令战衣举世无双。酒吧遇着靓女自称业余剪接师,二人一拍即合搞独立制作,自导自演边拍边杀,忽然鲜血淋漓劲过「买凶拍人」。《辘地魔》(35届)怪导杜皮埃又一荒诞绝伦黑色喜剧,由《星光梦里人》(2011)金像影帝尚杜加丹忘我演出,加上《无名女孩》(2016)艾狄夏妮,调侃《危险人物》(1994)之余,更把暴力和后设手法玩得出其不意,妙不可言。

◎获奖情况

  第72届戛纳电影节 ?(2019)
  导演双周单元(提名) 昆汀·杜皮约
  
  第2届海南岛国际电影节 ?(2019)
  金椰奖最佳影片奖(提名)
Video
ID                                       : 2
Format                                   : AVC
Format/Info                              : Advanced Video Codec
Format profile                           : [email protected]
Format settings                          : CABAC / 8 Ref Frames
Format settings, CABAC                   : Yes
Format settings, Reference frames        : 8 frames
Codec ID                                 : V_MPEG4/ISO/AVC
Duration                                 : 1 h 16 min
Bit rate                                 : 2 119 kb/s
Width                                    : 1 280 pixels
Height                                   : 690 pixels
Display aspect ratio                     : 1.85:1
Frame rate mode                          : Constant
Frame rate                               : 23.976 (24000/1001/189150) FPS
Color space                              : YUV
Chroma subsampling                       : 4:2:0
Bit depth                                : 8 bits
Scan type                                : Progressive
Bits/(Pixel*Frame)                       : 0.100
Stream size                              : 1.13 GiB (77%)
Writing library                          : x264 core 157 r2969 d4099dd
Encoding settings                        : cabac=1 / ref=8 / deblock=1:-3:-3 / analyse=0x3:0x133 / me=umh / subme=9 / psy=1 / psy_rd=1.00:0.00 / mixed_ref=1 / me_range=16 / chroma_me=1 / trellis=2 / 8x8dct=1 / cqm=0 / deadzone=21,11 / fast_pskip=1 / chroma_qp_offset=-2 / threads=12 / lookahead_threads=1 / sliced_threads=0 / nr=0 / decimate=1 / interlaced=0 / bluray_compat=0 / constrained_intra=0 / bframes=3 / b_pyramid=2 / b_adapt=2 / b_bias=0 / direct=3 / weightb=1 / open_gop=0 / weightp=2 / keyint=250 / keyint_min=23 / scenecut=40 / intra_refresh=0 / rc_lookahead=60 / rc=crf / mbtree=1 / crf=17.0 / qcomp=0.60 / qpmin=0 / qpmax=69 / qpstep=4 / ip_ratio=1.40 / aq=3:0.70
Language                                 : English
Default                                  : Yes
Forced                                   : No

Audio
ID                                       : 1
Format                                   : AC-3
Format/Info                              : Audio Coding 3
Commercial name                          : Dolby Digital
Codec ID                                 : A_AC3
Duration                                 : 1 h 16 min
Bit rate mode                            : Constant
Bit rate                                 : 640 kb/s
Channel(s)                               : 6 channels
Channel layout                           : L R C LFE Ls Rs
Sampling rate                            : 48.0 kHz
Frame rate                               : 31.250 FPS (1536 SPF)
Compression mode                         : Lossy
Stream size                              : 351 MiB (23%)
Service kind                             : Complete Main
Default                                  : Yes
Forced                                   : No




                                                                                                                                                                                                        
                                                                                                                                                                                                                                                                                                                                                                                                                                                                                                                                                                                                                                                                                                                                                                                                                                                        
a24a25312219715a17f68e0ef721a99b.zip (15.44 KB, 下载次数: 0)

回复

使用道具 举报

小黑屋|百度云资源论坛 |网站地图

本网站所有资源来自网络,如无意中侵犯了您的权益,请发邮件至 [email protected],立即清除相关链接

GMT+8, 2020-11-27 08:36 , Processed in 0.102789 second(s), 23 queries .

Powered by Discuz! X3.2

© 2001-2013 Comsenz Inc.

快速回复 返回顶部 返回列表