百度云资源论坛

 找回密码
 立即注册
搜索

超能追缉/你我皆凡人 Mortal.2020.720p.BluRay.x264-PiGNUS 3.24GB

[复制链接]
百度云资源 发表于 2020-11-13 12:01:37 | 显示全部楼层 |阅读模式
帖子完整标题:超能追缉/你我皆凡人 Mortal.2020.720p.BluRay.x264-PiGNUS 3.24GB


[/url]

◎译  名 超能追缉/你我皆凡人/凡人/凡人烦人/超能追缉(台)
◎片  名 Mortal
◎年  代 2020
◎产  地 挪威,美国,英国
◎类  别 动作 / 奇幻 / 冒险
◎语  言 挪威语,英语
◎上映日期 2020-02-28(挪威)
◎IMDb评分  5.7/10 from 2981 users
◎  
◎豆瓣评分 5.5/10 from 948 users
◎ 
◎片  长 104分钟
◎导  演 安德烈·艾弗道夫 André ?vredal
◎编  剧 安德烈·艾弗道夫 André ?vredal
◎主  演 纳特·沃尔夫 Nat Wolff
       亚瑟·哈卡拉赫蒂 Arthur Hakalahti
       珀·埃吉尔·埃斯克 Per Egil Aske
       Per Frisch
       Slawomir Poplawski

◎标  签 奇幻 | 挪威 | 科幻 | 2020 | 挪威电影 | 动作 | 电影 | 美国

◎简  介

  故事讲述一位挪威裔神秘男子,让碰到自己的少年突然自燃,并被控谋杀罪名。在接受审问之前,一位心理医师惊人发现,他竟然拥有无法控制的超自然能力,而这股力量可能来自于北欧神话,于是她决定帮助这位神秘男子逃狱,一同踏上寻找真相的旅途。
Video
ID                                       : 1
Format                                   : AVC
Format/Info                              : Advanced Video Codec
Format profile                           :
Format settings                          : CABAC / 8 Ref Frames
Format settings, CABAC                   : Yes
Format settings, Reference frames        : 8 frames
Codec ID                                 : V_MPEG4/ISO/AVC
Duration                                 : 1 h 44 min
Bit rate                                 : 3 760 kb/s
Width                                    : 1 280 pixels
Height                                   : 536 pixels
Display aspect ratio                     : 2.40:1
Frame rate mode                          : Constant
Frame rate                               : 23.976 (24000/1001/189150) FPS
Color space                              : YUV
Chroma subsampling                       : 4:2:0
Bit depth                                : 8 bits
Scan type                                : Progressive
Bits/(Pixel*Frame)                       : 0.229
Stream size                              : 2.75 GiB (85%)
Writing library                          : x264 core 161 r3027 4121277
Encoding settings                        : cabac=1 / ref=8 / deblock=1:-3:-3 / analyse=0x3:0x133 / me=umh / subme=9 / psy=1 / psy_rd=1.00:0.00 / mixed_ref=1 / me_range=16 / chroma_me=1 / trellis=2 / 8x8dct=1 / cqm=0 / deadzone=21,11 / fast_pskip=1 / chroma_qp_offset=-2 / threads=17 / lookahead_threads=1 / sliced_threads=0 / nr=0 / decimate=1 / interlaced=0 / bluray_compat=0 / constrained_intra=0 / bframes=3 / b_pyramid=2 / b_adapt=2 / b_bias=0 / direct=3 / weightb=1 / open_gop=0 / weightp=2 / keyint=250 / keyint_min=23 / scenecut=40 / intra_refresh=0 / rc_lookahead=60 / rc=crf / mbtree=1 / crf=14.5 / qcomp=0.60 / qpmin=0 / qpmax=69 / qpstep=4 / ip_ratio=1.40 / aq=1:1.00
Default                                  : Yes
Forced                                   : No

Audio
ID                                       : 2
Format                                   : AC-3
Format/Info                              : Audio Coding 3
Commercial name                          : Dolby Digital
Codec ID                                 : A_AC3
Duration                                 : 1 h 44 min
Bit rate mode                            : Constant
Bit rate                                 : 640 kb/s
Channel(s)                               : 6 channels
Channel layout                           : L R C LFE Ls Rs
Sampling rate                            : 48.0 kHz
Frame rate                               : 31.250 FPS (1536 SPF)
Compression mode                         : Lossy
Stream size                              : 480 MiB (14%)
Language                                 : Norwegian
Service kind                             : Complete Main
Default                                  : Yes
Forced                                   : No

Text #1
ID                                       : 3
Format                                   : UTF-8
Codec ID                                 : S_TEXT/UTF8
Codec ID/Info                            : UTF-8 Plain Text
Duration                                 : 1 h 28 min
Bit rate                                 : 11 b/s
Count of elements                        : 176
Stream size                              : 7.22 KiB (0%)
Title                                    : English Forced
Language                                 : English
Default                                  : Yes
Forced                                   : Yes

Text #2
ID                                       : 4
Format                                   : PGS
Muxing mode                              : zlib
Codec ID                                 : S_HDMV/PGS
Codec ID/Info                            : Picture based subtitle format used on BDs/HD-DVDs
Duration                                 : 1 h 36 min
Bit rate                                 : 19.8 kb/s
Count of elements                        : 1288
Stream size                              : 13.7 MiB (0%)
Title                                    : English SDH
Language                                 : English
Default                                  : No
Forced                                   : No

Text #3
ID                                       : 5
Format                                   : PGS
Muxing mode                              : zlib
Codec ID                                 : S_HDMV/PGS
Codec ID/Info                            : Picture based subtitle format used on BDs/HD-DVDs
Duration                                 : 1 h 36 min
Bit rate                                 : 14.6 kb/s
Count of elements                        : 972
Stream size                              : 10.1 MiB (0%)
Title                                    : Spanish
Language                                 : Spanish
Default                                  : No
Forced                                   : No

Text #4
ID                                       : 6
Format                                   : PGS
Muxing mode                              : zlib
Codec ID                                 : S_HDMV/PGS
Codec ID/Info                            : Picture based subtitle format used on BDs/HD-DVDs
Duration                                 : 1 h 28 min
Bit rate                                 : 6 634 b/s
Count of elements                        : 352
Stream size                              : 4.22 MiB (0%)
Title                                    : English
Language                                 : English
Default                                  : No
Forced                                   : No

Menu
00:00:00.000                             : en:Chapter 01
00:06:45.280                             : en:Chapter 02
00:11:46.539                             : en:Chapter 03
00:15:19.794                             : en:Chapter 04
00:26:52.778                             : en:Chapter 05
00:34:49.170                             : en:Chapter 06
00:38:54.415                             : en:Chapter 07
00:42:14.699                             : en:Chapter 08
00:47:50.117                             : en:Chapter 09
00:51:39.555                             : en:Chapter 10
00:55:32.788                             : en:Chapter 11
01:06:38.119                             : en:Chapter 12
01:15:51.756                             : en:Chapter 13
01:20:12.558                             : en:Chapter 14
01:28:41.441                             : en:Chapter 15
01:34:51.394                             : en:Chapter 16
[/url]



                                                                                                                                                                                                        
                                                                                                                                                                                                                                                                                                                                                                                                                                                                                                                                                                                                                                                                                                                                                                                                                                                         58e10d40f2b06d6adcb5a496415c7990.zip (33.06 KB, 下载次数: 0)

回复

使用道具 举报

小黑屋|百度云资源论坛 |网站地图

本网站所有资源来自网络,如无意中侵犯了您的权益,请发邮件至 [email protected],立即清除相关链接

GMT+8, 2020-12-3 09:10 , Processed in 0.095868 second(s), 23 queries .

Powered by Discuz! X3.2

© 2001-2013 Comsenz Inc.

快速回复 返回顶部 返回列表