百度云资源论坛

 找回密码
 立即注册
搜索

告别前的30分钟 Our.30-Minute.Sessions.2020.JAPANESE.1080p.BluRay.x264.D...

[复制链接]
百度云资源 发表于 2020-11-13 09:34:09 | 显示全部楼层 |阅读模式
帖子完整标题:告别前的30分钟 Our.30-Minute.Sessions.2020.JAPANESE.1080p.BluRay.x264.DTS-PTH 8.02GB


[/url]

◎译  名 告别前的30分钟/Our 30 Minutes Session/再见前的30分钟/离道别只差30分/说再见前的30分钟(台)
◎片  名 サヨナラまでの30分
◎年  代 2020
◎产  地 日本
◎类  别 剧情
◎语  言 日语
◎上映日期 2020-01-24(日本)
◎IMDb评分  6.4/10 from 56 users
◎  
◎豆瓣评分 6.8/10 from 527 users
◎ 
◎片  长 115分钟
◎导  演 萩原健太郎 Kentar? Hagiwara
◎编  剧 大岛里美 Satomi Oshima
◎主  演 新田真剑佑 Mackenyu Arata
       北村匠海 Takumi Kitamura
       久保田纱友 Sayu Kubota
       叶山奖之 Shono Hayama
       上杉柊平 Shuhei Uesugi
       清原翔 Sh? Kiyohara
       牧濑里穗 Riho Makise
       筒井道隆 Michitaka Tsutsui
       松重丰 Yutaka Matsushige

◎标  签 日本 | 音乐 | 青春 | 2020 | 梦想 | 剧情 | 电影 | 爱情

◎简  介

  不擅长与人交往的大学生飒太捡到一盒磁带,它属于一年前死去的乐队主唱Aki,自此磁带播放的30分钟内,Aki可以和飒太共用一个身体。Aki利用这个机会,试图重新组建自己曾经被迫解散的乐队ECHOLL。飒太也逐渐被性格乐观的Aki所影响,在和同伴们的合奏中感到快乐。飒太与Aki谋划着制作出最棒的曲子,来吸引Aki曾经的乐队伙伴兼恋人Kana再次加入乐队。飒太逐渐对Kana心生好感,Kana也慢慢打开心扉。可因为某个契机,Kana开始怀疑飒太是不是就是Aki,而飒太和Aki共用身体的时间也开始渐渐变短。
Video
ID                                       : 1
Format                                   : AVC
Format/Info                              : Advanced Video Codec
Format profile                           :
Format settings                          : CABAC / 4 Ref Frames
Format settings, CABAC                   : Yes
Format settings, Reference frames        : 4 frames
Codec ID                                 : V_MPEG4/ISO/AVC
Duration                                 : 1 h 54 min
Bit rate                                 : 8 519 kb/s
Width                                    : 1 920 pixels
Height                                   : 804 pixels
Display aspect ratio                     : 2.40:1
Frame rate mode                          : Constant
Frame rate                               : 23.976 (24000/1001/189150) FPS
Color space                              : YUV
Chroma subsampling                       : 4:2:0
Bit depth                                : 8 bits
Scan type                                : Progressive
Bits/(Pixel*Frame)                       : 0.230
Stream size                              : 6.80 GiB (85%)
Writing library                          : x264 core 160 r3007+53 ab26477 t_mod_New [(8 & 10) X86_64]
Encoding settings                        : cabac=1 / ref=4 / deblock=1:-3:-3 / analyse=0x3:0x133 / me=umh / subme=11 / psy=1 / fade_compensate=0.00 / psy_rd=1.00:0.00 / mixed_ref=1 / me_range=48 / chroma_me=1 / trellis=2 / 8x8dct=1 / cqm=0 / deadzone=21,11 / fast_pskip=0 / chroma_qp_offset=-3 / threads=9 / lookahead_threads=2 / sliced_threads=0 / nr=0 / decimate=0 / interlaced=0 / bluray_compat=0 / constrained_intra=0 / fgo=0 / bframes=11 / b_pyramid=2 / b_adapt=2 / b_bias=0 / direct=3 / weightb=1 / open_gop=0 / weightp=2 / keyint=240 / keyint_min=1 / scenecut=40 / intra_refresh=0 / rc_lookahead=72 / rc=crf / mbtree=0 / crf=17.0000 / qcomp=0.60 / qpmin=0:0:0 / qpmax=69:69:69 / qpstep=4 / vbv_maxrate=62500 / vbv_bufsize=78125 / crf_max=0.0 / nal_hrd=none / filler=0 / ip_ratio=1.40 / pb_ratio=1.30 / aq=3:0.80 / aq-sensitivity=10.00 / aq-factor=1.00:1.00:1.00 / aq2=0 / aq3=0
Default                                  : Yes
Forced                                   : No

Audio
ID                                       : 2
Format                                   : DTS
Format/Info                              : Digital Theater Systems
Codec ID                                 : A_DTS
Duration                                 : 1 h 54 min
Bit rate mode                            : Constant
Bit rate                                 : 1 510 kb/s
Channel(s)                               : 6 channels
Channel layout                           : C L R Ls Rs LFE
Sampling rate                            : 48.0 kHz
Frame rate                               : 93.750 FPS (512 SPF)
Bit depth                                : 24 bits
Compression mode                         : Lossy
Stream size                              : 1.21 GiB (15%)
Language                                 : Japanese
Default                                  : Yes
Forced                                   : No

Text #1
ID                                       : 3
Format                                   : UTF-8
Codec ID                                 : S_TEXT/UTF8
Codec ID/Info                            : UTF-8 Plain Text
Duration                                 : 1 h 47 min
Bit rate                                 : 45 b/s
Count of elements                        : 1239
Stream size                              : 36.0 KiB (0%)
Title                                    : SRT
Language                                 : English
Default                                  : Yes
Forced                                   : No

Text #2
ID                                       : 4
Format                                   : PGS
Muxing mode                              : zlib
Codec ID                                 : S_HDMV/PGS
Codec ID/Info                            : Picture based subtitle format used on BDs/HD-DVDs
Duration                                 : 1 h 51 min
Bit rate                                 : 18.7 kb/s
Count of elements                        : 2185
Stream size                              : 15.0 MiB (0%)
Title                                    : chs
Language                                 : Chinese
Default                                  : No
Forced                                   : No

Text #3
ID                                       : 5
Format                                   : PGS
Muxing mode                              : zlib
Codec ID                                 : S_HDMV/PGS
Codec ID/Info                            : Picture based subtitle format used on BDs/HD-DVDs
Duration                                 : 1 h 51 min
Bit rate                                 : 19.0 kb/s
Count of elements                        : 2185
Stream size                              : 15.2 MiB (0%)
Title                                    : cht
Language                                 : Chinese
Default                                  : No
Forced                                   : No

Menu
00:00:00.000                             : en:Chapter 01
00:04:34.065                             : en:Chapter 02
00:13:17.839                             : en:Chapter 03
00:20:51.834                             : en:Chapter 04
00:30:36.626                             : en:Chapter 05
00:40:23.713                             : en:Chapter 06
00:55:16.480                             : en:Chapter 07
01:02:12.479                             : en:Chapter 08
01:15:43.706                             : en:Chapter 09
01:23:46.980                             : en:Chapter 10
01:31:22.560                             : en:Chapter 11
01:40:04.999                             : en:Chapter 12
01:50:00.594                             : en:Chapter 13
[/url][/url][/url]



                                                                                                                                                                                                        
                                                                                                                                                                                                                                                                                                                                                                                                                                                                                                                                                                                                                                                                                                                                                                                                                                                         1af0292f2c2958c5bea33a4c6eb798c8.zip (40.8 KB, 下载次数: 0)

回复

使用道具 举报

小黑屋|百度云资源论坛 |网站地图

本网站所有资源来自网络,如无意中侵犯了您的权益,请发邮件至 [email protected],立即清除相关链接

GMT+8, 2020-12-3 01:53 , Processed in 0.117398 second(s), 23 queries .

Powered by Discuz! X3.2

© 2001-2013 Comsenz Inc.

快速回复 返回顶部 返回列表