百度云资源论坛

 找回密码
 立即注册
搜索

滚出我地盘/梦想之家 Guest.House.2020.1080p.BluRay.x264-PiGNUS 9.33GB

[复制链接]
百度云资源 发表于 2020-11-13 09:34:09 | 显示全部楼层 |阅读模式
帖子完整标题:滚出我地盘/梦想之家 Guest.House.2020.1080p.BluRay.x264-PiGNUS 9.33GB


[/url]

◎译  名 滚出我地盘/梦想之家
◎片  名 Guest House
◎年  代 2020
◎产  地 美国
◎类  别 喜剧
◎语  言 英语
◎上映日期 2020-09-04(美国)
◎IMDb评分  4.6/10 from 554 users
◎  
◎豆瓣评分 /10 from 0 users
◎ 
◎导  演 Sam Maccarone
◎编  剧 肖恩·毕晓普 Sean Bishop / 特洛伊·达菲 Troy Duffy / Sam Maccarone
◎主  演 丽兹·卡茨 Liz Katz
       米凯拉·霍沃 Mikaela Hoover
       艾米·缇加登 Aimee Teegarden
       比利·赞恩 Billy Zane
       保利·肖尔 Pauly Shore
       鲍比·李 Bobby Lee
       小卢·弗里基诺 Lou Ferrigno Jr.
       夏洛特·麦金尼 Charlotte McKinney
       卢·弗里基诺 Lou Ferrigno
       克里斯·卡坦 Chris Kattan
       麦克·卡索 Mike Castle
       史蒂夫 Steve-O
       埃里克·格里芬 Erik Griffin
       威洛·黑尔 Willow Hale
       费利佩·埃斯帕扎 Felipe Esparza
       Sam Maccarone
       卡琳娜·容克 Karina Junker
       小戴维·M·桑多瓦尔 David M Sandoval Jr.
       凯伦·特利哈 Karen Teliha

◎标  签 艾米·缇加登 | 美国电影 | 美国 | 米凯拉·霍沃 | 比利·赞恩 | 丽兹·卡茨 | 喜剧 | 其他电影

◎简  介

  一对刚订婚的夫妇找到了他们梦想中的房子,但当前主人的朋友继续霸占他们的领地时,这很快变成了一场噩梦。这导致了一场地盘之争。
Video
ID                                       : 1
Format                                   : AVC
Format/Info                              : Advanced Video Codec
Format profile                           :
Format settings                          : CABAC / 4 Ref Frames
Format settings, CABAC                   : Yes
Format settings, Reference frames        : 4 frames
Codec ID                                 : V_MPEG4/ISO/AVC
Duration                                 : 1 h 24 min
Bit rate                                 : 12.2 Mb/s
Width                                    : 1 920 pixels
Height                                   : 1 080 pixels
Display aspect ratio                     : 16:9
Frame rate mode                          : Constant
Frame rate                               : 23.976 (24000/1001/189150) FPS
Color space                              : YUV
Chroma subsampling                       : 4:2:0
Bit depth                                : 8 bits
Scan type                                : Progressive
Bits/(Pixel*Frame)                       : 0.245
Stream size                              : 7.19 GiB (77%)
Writing library                          : x264 core 161 r3027 4121277
Encoding settings                        : cabac=1 / ref=4 / deblock=1:-3:-3 / analyse=0x3:0x133 / me=umh / subme=9 / psy=1 / psy_rd=1.00:0.00 / mixed_ref=1 / me_range=16 / chroma_me=1 / trellis=2 / 8x8dct=1 / cqm=0 / deadzone=21,11 / fast_pskip=1 / chroma_qp_offset=-2 / threads=34 / lookahead_threads=2 / sliced_threads=0 / nr=0 / decimate=1 / interlaced=0 / bluray_compat=0 / constrained_intra=0 / bframes=3 / b_pyramid=2 / b_adapt=2 / b_bias=0 / direct=3 / weightb=1 / open_gop=0 / weightp=2 / keyint=250 / keyint_min=23 / scenecut=40 / intra_refresh=0 / rc_lookahead=60 / rc=crf / mbtree=1 / crf=16.5 / qcomp=0.60 / qpmin=0 / qpmax=69 / qpstep=4 / ip_ratio=1.40 / aq=1:1.00
Language                                 : English
Default                                  : Yes
Forced                                   : No

Audio
ID                                       : 2
Format                                   : DTS XLL
Format/Info                              : Digital Theater Systems
Commercial name                          : DTS-HD Master Audio
Codec ID                                 : A_DTS
Duration                                 : 1 h 24 min
Bit rate mode                            : Variable
Bit rate                                 : 3 544 kb/s
Channel(s)                               : 6 channels
Channel layout                           : C L R Ls Rs LFE
Sampling rate                            : 48.0 kHz
Frame rate                               : 93.750 FPS (512 SPF)
Bit depth                                : 24 bits
Compression mode                         : Lossless
Stream size                              : 2.09 GiB (22%)
Language                                 : English
Default                                  : Yes
Forced                                   : No

Text #1
ID                                       : 3
Format                                   : PGS
Muxing mode                              : zlib
Codec ID                                 : S_HDMV/PGS
Codec ID/Info                            : Picture based subtitle format used on BDs/HD-DVDs
Duration                                 : 1 h 22 min
Bit rate                                 : 53.3 kb/s
Count of elements                        : 3038
Stream size                              : 31.3 MiB (0%)
Title                                    : English SDH
Language                                 : English
Default                                  : No
Forced                                   : No

Text #2
ID                                       : 4
Format                                   : PGS
Muxing mode                              : zlib
Codec ID                                 : S_HDMV/PGS
Codec ID/Info                            : Picture based subtitle format used on BDs/HD-DVDs
Duration                                 : 1 h 22 min
Bit rate                                 : 42.5 kb/s
Count of elements                        : 2600
Stream size                              : 25.2 MiB (0%)
Title                                    : Spanish
Language                                 : Spanish
Default                                  : No
Forced                                   : No

Text #3
ID                                       : 5
Format                                   : PGS
Muxing mode                              : zlib
Codec ID                                 : S_HDMV/PGS
Codec ID/Info                            : Picture based subtitle format used on BDs/HD-DVDs
Duration                                 : 1 h 21 min
Bit rate                                 : 42.5 kb/s
Count of elements                        : 2668
Stream size                              : 24.9 MiB (0%)
Title                                    : Portuguese
Language                                 : Portuguese
Default                                  : No
Forced                                   : No

Text #4
ID                                       : 6
Format                                   : PGS
Muxing mode                              : zlib
Codec ID                                 : S_HDMV/PGS
Codec ID/Info                            : Picture based subtitle format used on BDs/HD-DVDs
Duration                                 : 1 h 21 min
Bit rate                                 : 38.9 kb/s
Count of elements                        : 2584
Stream size                              : 22.7 MiB (0%)
Title                                    : French
Language                                 : French
Default                                  : No
Forced                                   : No

Menu
00:00:00.000                             : en:Chapter 01
00:04:41.239                             : en:Chapter 02
00:08:42.564                             : en:Chapter 03
00:12:17.028                             : en:Chapter 04
00:18:12.425                             : en:Chapter 05
00:21:03.554                             : en:Chapter 06
00:25:32.406                             : en:Chapter 07
00:33:13.158                             : en:Chapter 08
00:37:03.012                             : en:Chapter 09
00:41:45.420                             : en:Chapter 10
00:47:29.764                             : en:Chapter 11
00:51:31.839                             : en:Chapter 12
00:56:25.173                             : en:Chapter 13
01:01:31.688                             : en:Chapter 14
01:11:36.542                             : en:Chapter 15
01:15:32.945                             : en:Chapter 16
[/url]



                                                                                                                                                                                                        
                                                                                                                                                                                                                                                                                                                                                                                                                                                                                                                                                                                                                                                                                                                                                                                                                                                         a1c08dc6b4f78b621ef58e82d738ac05.zip (47.37 KB, 下载次数: 0)

回复

使用道具 举报

小黑屋|百度云资源论坛 |网站地图

本网站所有资源来自网络,如无意中侵犯了您的权益,请发邮件至 [email protected],立即清除相关链接

GMT+8, 2020-12-3 02:59 , Processed in 0.110137 second(s), 23 queries .

Powered by Discuz! X3.2

© 2001-2013 Comsenz Inc.

快速回复 返回顶部 返回列表