百度云资源论坛

 找回密码
 立即注册
搜索

毛俠 Paws.Men.2018.CHINESE.1080p.BluRay.x264-WiKi 8.61GB

[复制链接]
百度云资源 发表于 2020-11-12 12:15:41 | 显示全部楼层 |阅读模式
帖子完整标题:毛俠 Paws.Men.2018.CHINESE.1080p.BluRay.x264-WiKi 8.61GB


[/url]

◎译  名 毛侠/Paws Men
◎片  名 毛俠
◎年  代 2018
◎产  地 中国香港
◎类  别 剧情
◎语  言 粤语
◎上映日期 2018-10-11(中国香港)
◎IMDb评分  6.4/10 from 15 users
◎  
◎豆瓣评分 5.7/10 from 210 users
◎ 
◎导  演 区焯文 Cheuk Man Au
◎编  剧 吕筱华 Shiu-wa Lou / 区焯文 Cheuk Man Au
◎主  演 刘以达 Tats Lau
       陈丽云 Lai-wun Chan
       林盛斌 Shing-Ban Lam
       陈逸宁 Yat Ning Chan
       林耀声 Yiu-Sing Lam
       区焯文 Cheuk Man Au

◎标  签 香港 | 香港电影 | 温情 | 狗 | 纪录片 | 2018 | 感动 | 刘以达

◎简  介

  救狗組織「毛俠」由達仁、采妮、海狗、基斯四位成員組成,無論任何時候,只要有狗隻需要救援,「毛俠」就會立刻出動,去拯救這些流浪毛孩。電影中分別以三個故事來講述「毛俠」的救狗經歷,第 一個故事為「食狗疑雲」;第二個故事為「虐狗婆婆」; 最後一個故事為「遺棄浪人」。
  
  在這些故事中,「毛俠」會遇上不同的難關,為了調查 事件的真相,他們更會深入案件現場。在調查的過程中, 他們見證了一段又一人狗之間的深刻友誼,但同時慨嘆, 原來救狗最大的難度,是在於人的問題. . . . .? “
Video
ID                                       : 1
Format                                   : AVC
Format/Info                              : Advanced Video Codec
Format profile                           :
Format settings                          : CABAC / 5 Ref Frames
Format settings, CABAC                   : Yes
Format settings, ReFrames                : 5 frames
Codec ID                                 : V_MPEG4/ISO/AVC
Duration                                 : 1 h 37 min
Bit rate                                 : 12.2 Mb/s
Width                                    : 1 920 pixels
Height                                   : 816 pixels
Display aspect ratio                     : 2.35:1
Frame rate mode                          : Constant
Frame rate                               : 25.000 FPS
Color space                              : YUV
Chroma subsampling                       : 4:2:0
Bit depth                                : 8 bits
Scan type                                : Progressive
Bits/(Pixel*Frame)                       : 0.313
Stream size                              : 8.30 GiB (96%)
Writing library                          : x264 core 155 r2867+82 a249126 t_mod_Custom_2 [ X86_64]
Encoding settings                        : cabac=1 / ref=5 / deblock=1:-3:-3 / analyse=0x3:0x133 / me=umh / subme=10 / psy=1 / fade_compensate=0.00 / psy_rd=1.00:0.00 / mixed_ref=1 / me_range=32 / chroma_me=1 / trellis=2 / 8x8dct=1 / cqm=0 / deadzone=21,11 / fast_pskip=0 / chroma_qp_offset=-2 / threads=24 / lookahead_threads=2 / sliced_threads=0 / nr=0 / decimate=0 / interlaced=fake / bluray_compat=0 / constrained_intra=0 / fgo=0 / bframes=6 / b_pyramid=2 / b_adapt=2 / b_bias=0 / direct=3 / weightb=1 / open_gop=0 / weightp=2 / keyint=250 / keyint_min=25 / scenecut=40 / intra_refresh=0 / rc_lookahead=60 / rc=crf / mbtree=0 / crf=16.0000 / qcomp=0.65 / qpmin=0:0:0 / qpmax=69:69:69 / qpstep=4 / vbv_maxrate=62500 / vbv_bufsize=78125 / crf_max=0.0 / nal_hrd=none / filler=0 / ip_ratio=1.35 / pb_ratio=1.25 / aq=3:0.85 / aq-sensitivity=10.00 / aq-factor=1.00:1.00:1.00 / aq2=0 / aq3=0
Default                                  : Yes
Forced                                   : No

Audio
ID                                       : 2
Format                                   : AC-3
Format/Info                              : Audio Coding 3
Commercial name                          : Dolby Digital
Codec ID                                 : A_AC3
Duration                                 : 1 h 37 min
Bit rate mode                            : Constant
Bit rate                                 : 448 kb/s
Channel(s)                               : 2 channels
Channel layout                           : L R
Sampling rate                            : 48.0 kHz
Frame rate                               : 31.250 FPS (1536 SPF)
Bit depth                                : 16 bits
Compression mode                         : Lossy
Stream size                              : 311 MiB (4%)
Title                                    : Cantonese
Language                                 : Chinese
Service kind                             : Complete Main
Default                                  : Yes
Forced                                   : No

Text #1
ID                                       : 3
Format                                   : UTF-8
Codec ID                                 : S_TEXT/UTF8
Codec ID/Info                            : UTF-8 Plain Text
Duration                                 : 1 h 34 min
Bit rate                                 : 43 b/s
Count of elements                        : 1200
Stream size                              : 30.0 KiB (0%)
Title                                    : CHS
Language                                 : Chinese
Default                                  : No
Forced                                   : No

Text #2
ID                                       : 4
Format                                   : UTF-8
Codec ID                                 : S_TEXT/UTF8
Codec ID/Info                            : UTF-8 Plain Text
Duration                                 : 1 h 34 min
Bit rate                                 : 43 b/s
Count of elements                        : 1200
Stream size                              : 30.0 KiB (0%)
Title                                    : CHT
Language                                 : Chinese
Default                                  : No
Forced                                   : No

Menu
00:00:00.000                             : en:00:00:00.000
00:09:00.960                             : en:00:09:00.960
00:16:59.800                             : en:00:16:59.800
00:22:52.800                             : en:00:22:52.800
00:32:19.400                             : en:00:32:19.400
00:41:08.320                             : en:00:41:08.320
00:47:55.840                             : en:00:47:55.840
00:57:02.840                             : en:00:57:02.840
01:03:15.400                             : en:01:03:15.400
01:12:26.600                             : en:01:12:26.600
01:20:34.040                             : en:01:20:34.040
01:29:22.000                             : en:01:29:22.000
[/url][/url][/url]



                                                                                                                                                                                                        
                                                                                                                                                                                                                                                                                                                                                                                                                                                                                                                                                                                                                                                                                                                                                                                                                                                         b35b3756ff9fa23c1afeb9e65ef5f4c8.zip (87.5 KB, 下载次数: 0)

回复

使用道具 举报

小黑屋|百度云资源论坛 |网站地图

本网站所有资源来自网络,如无意中侵犯了您的权益,请发邮件至 [email protected],立即清除相关链接

GMT+8, 2020-12-3 03:13 , Processed in 0.106571 second(s), 23 queries .

Powered by Discuz! X3.2

© 2001-2013 Comsenz Inc.

快速回复 返回顶部 返回列表