百度云资源论坛

 找回密码
 立即注册
搜索

境·界 Bleach.2018.JAPANESE.1080p.BluRay.x264.DTS-WiKi 9.75GB

[复制链接]
百度云电影 发表于 2020-11-12 12:15:41 | 显示全部楼层 |阅读模式
帖子完整标题:境·界 Bleach.2018.JAPANESE.1080p.BluRay.x264.DTS-WiKi 9.75GB


[/url]

◎译  名 境·界/Bleach/境界/死神真人版
◎片  名 BLEACH
◎年  代 2018
◎产  地 日本
◎类  别 动作 / 奇幻 / 冒险
◎语  言 日语
◎上映日期 2018-07-20(日本) / 2019-04-19(中国大陆)
◎IMDb评分  6.4/10 from 10092 users
◎  
◎豆瓣评分 4.9/10 from 10384 users
◎ 
◎片  长 108分钟
◎导  演 佐藤信介 Shinsuke Sato
◎编  剧 羽原大介 Daisuke Habara / 佐藤信介 Shinsuke Sato / 久保带人 Tite Kubo
◎主  演 福士苍汰 S?ta Fukushi
       杉咲花 Hana Sugisaki
       吉泽亮 Yoshizawa Ryo
       真野惠里菜 Erina Mano
       小柳友 Y? Koyanagi
       田边诚一 Seiichi Tanabe
       早乙女太一 Taichi Saotome
       石原贵雅 Miyavi
       长泽雅美 Masami Nagasawa
       江口洋介 Y?suke Eguchi
       高村佳伟人 Kaito Takamura

◎标  签 日本 | 漫画改编 | 2018 | 动作 | 真人版 | 奇幻 | 热血 | 冒险

◎简  介

  从小异于常人的黑崎一护(福士苍汰 饰),在一次机缘巧合下遭遇女死神“朽木露琪亚”(杉咲花 饰)。 露琪亚是将灵魂从现实世界引领到尸魂界的收魂者之一,他们为保护人类 不被“虚” 侵害,一直在与这些怪物战斗。在与一只异常强大的“虚” 战斗时,露琪亚身负重伤,无奈只能将死神 的力量暂时转给黑崎一护,让其代为战斗。两人经过一段时间的磨合后并肩战斗,终于战胜了当年害死一护母亲的“虚”,但在这期间,露琪亚的兄长朽木白哉(石原贵雅 饰)强迫她不顾黑崎一护的生命安危收回法力。露琪亚为保护一护,拖延到与“虚”的战斗结束,并清除了一护的记忆……
Video
ID                                       : 1
Format                                   : AVC
Format/Info                              : Advanced Video Codec
Format profile                           :
Format settings                          : CABAC / 5 Ref Frames
Format settings, CABAC                   : Yes
Format settings, ReFrames                : 5 frames
Codec ID                                 : V_MPEG4/ISO/AVC
Duration                                 : 1 h 48 min
Bit rate                                 : 11.4 Mb/s
Width                                    : 1 920 pixels
Height                                   : 802 pixels
Display aspect ratio                     : 2.40:1
Frame rate mode                          : Constant
Frame rate                               : 23.976 (24000/1001/189150) FPS
Color space                              : YUV
Chroma subsampling                       : 4:2:0
Bit depth                                : 8 bits
Scan type                                : Progressive
Bits/(Pixel*Frame)                       : 0.308
Stream size                              : 8.61 GiB (88%)
Writing library                          : x264 core 129 r2245+704+36 8e61944 tMod+MixAQ [:2:0 X86_64]
Encoding settings                        : cabac=1 / ref=5 / deblock=1:-3:-3 / analyse=0x3:0x133 / me=umh / subme=11 / psy=1 / fade_compensate=0.00 / psy_rd=1.05:0.10 / mixed_ref=1 / me_range=64 / chroma_me=1 / trellis=2 / 8x8dct=1 / cqm=0 / deadzone=21,11 / fast_pskip=0 / chroma_qp_offset=-3 / threads=18 / lookahead_threads=3 / sliced_threads=0 / nr=0 / decimate=0 / interlaced=0 / bluray_compat=0 / constrained_intra=0 / fgo=0 / bframes=10 / b_pyramid=2 / b_adapt=2 / b_bias=0 / direct=3 / weightb=1 / open_gop=0 / weightp=2 / keyint=250 / keyint_min=23 / scenecut=40 / intra_refresh=0 / rc=2pass / mbtree=0 / bitrate=11374 / ratetol=1.0 / qcomp=0.70 / qpmin=0 / qpmax=69 / qpstep=4 / cplxblur=20.0 / qblur=0.5 / ip_ratio=1.40 / pb_ratio=1.30 / aq=1 / aq-strength=0.90 / aq-sensitivity=10.00 / aq-ifactor=1.00 / aq-pfactor=1.00 / aq-bfactor=1.00 / aq2=0
Language                                 : Japanese
Default                                  : Yes
Forced                                   : No

Audio
ID                                       : 2
Format                                   : DTS
Format/Info                              : Digital Theater Systems
Codec ID                                 : A_DTS
Duration                                 : 1 h 48 min
Bit rate mode                            : Constant
Bit rate                                 : 1 509 kb/s
Channel(s)                               : 6 channels
Channel layout                           : C L R Ls Rs LFE
Sampling rate                            : 48.0 kHz
Frame rate                               : 93.750 FPS (512 SPF)
Bit depth                                : 24 bits
Compression mode                         : Lossy
Stream size                              : 1.14 GiB (12%)
Language                                 : Japanese
Default                                  : Yes
Forced                                   : No

Text #1
ID                                       : 3
Format                                   : UTF-8
Codec ID                                 : S_TEXT/UTF8
Codec ID/Info                            : UTF-8 Plain Text
Duration                                 : 1 h 42 min
Bit rate                                 : 27 b/s
Count of elements                        : 958
Stream size                              : 20.4 KiB (0%)
Language                                 : English
Default                                  : Yes
Forced                                   : Yes

Text #2
ID                                       : 4
Format                                   : UTF-8
Codec ID                                 : S_TEXT/UTF8
Codec ID/Info                            : UTF-8 Plain Text
Duration                                 : 1 h 42 min
Bit rate                                 : 26 b/s
Count of elements                        : 969
Stream size                              : 19.5 KiB (0%)
Title                                    : Simplified
Language                                 : Chinese
Default                                  : No
Forced                                   : No

Text #3
ID                                       : 5
Format                                   : UTF-8
Codec ID                                 : S_TEXT/UTF8
Codec ID/Info                            : UTF-8 Plain Text
Duration                                 : 1 h 42 min
Bit rate                                 : 26 b/s
Count of elements                        : 969
Stream size                              : 19.5 KiB (0%)
Title                                    : Traditional
Language                                 : Chinese
Default                                  : No
Forced                                   : No

Menu
00:00:00.000                             : en:00:00:00.000
00:03:47.769                             : en:00:03:47.769
00:15:54.495                             : en:00:15:54.495
00:24:24.379                             : en:00:24:24.379
00:35:13.110                             : en:00:35:13.110
00:46:39.630                             : en:00:46:39.630
00:52:53.211                             : en:00:52:53.211
01:05:20.750                             : en:01:05:20.750
01:20:19.814                             : en:01:20:19.814
01:28:21.504                             : en:01:28:21.504
01:39:49.358                             : en:01:39:49.358
01:43:10.392                             : en:01:43:10.392
01:48:22.704                             : en:01:48:22.704
[/url][/url][/url]



                                                                                                                                                                                                        
                                                                                                                                                                                                                                                                                                                                                                                                                                                                                                                                                                                                                                                                                                                                                                                                                                                         b9cb25ed17616aafd15e67cadab901bd.zip (98.97 KB, 下载次数: 0)

回复

使用道具 举报

小黑屋|百度云资源论坛 |网站地图

本网站所有资源来自网络,如无意中侵犯了您的权益,请发邮件至 [email protected],立即清除相关链接

GMT+8, 2020-12-2 13:45 , Processed in 0.106887 second(s), 23 queries .

Powered by Discuz! X3.2

© 2001-2013 Comsenz Inc.

快速回复 返回顶部 返回列表