百度云资源论坛

 找回密码
 立即注册
搜索

音乐抱负 Ambition.2019.1080p.BluRay.x264-iFT 8.94GB

[复制链接]
百度云资源 发表于 2020-11-12 12:15:41 | 显示全部楼层 |阅读模式
帖子完整标题:音乐抱负 Ambition.2019.1080p.BluRay.x264-iFT 8.94GB


[/url]

◎译  名 音乐抱负/Gifted
◎片  名 Ambition
◎年  代 2019
◎产  地 美国
◎类  别 惊悚
◎语  言 英语
◎上映日期 2019-09-20(美国)
◎IMDb评分  3.8/10 from 269 users
◎  
◎豆瓣评分 /10 from 0 users
◎ 
◎导  演 罗伯特·沙耶 Robert Shaye
◎编  剧 罗可·里奇 Rocco Ritchie
◎主  演 水野索诺娅 Sonoya Mizuno
       凯瑟琳·休斯 Katherine Hughes
       可亚娜·西蒙妮·辛普森 Kyanna Simone Simpson
       杰拉德·班肯斯 Jared Bankens
       林·沙烨 Lin Shaye

◎标  签 美国电影 | 音乐 | 水野索诺娅 | 林·沙烨 | 惊悚 | [歐美] | 2019

◎简  介

  一个年轻的有抱负的音乐家准备比赛,是令人难以置信的知己,并让自己卷入一个可怕的陷阱,她必须找到自己的出路。它提出了一个问题:如果一个疯子在讲故事,这是真的吗?
Video
ID                                       : 1
Format                                   : AVC
Format/Info                              : Advanced Video Codec
Format profile                           :
Format settings                          : CABAC / 5 Ref Frames
Format settings, CABAC                   : Yes
Format settings, Reference frames        : 5 frames
Codec ID                                 : V_MPEG4/ISO/AVC
Duration                                 : 1 h 27 min
Bit rate                                 : 13.6 Mb/s
Width                                    : 1 920 pixels
Height                                   : 800 pixels
Display aspect ratio                     : 2.40:1
Frame rate mode                          : Constant
Frame rate                               : 23.976 (24000/1001/189150) FPS
Color space                              : YUV
Chroma subsampling                       : 4:2:0
Bit depth                                : 8 bits
Scan type                                : Progressive
Bits/(Pixel*Frame)                       : 0.370
Stream size                              : 8.31 GiB (93%)
Writing library                          : x264 core 161 r3018+53 ~ Encoded by Mocunaman in Portugal
Encoding settings                        : cabac=1 / ref=5 / deblock=1:-3:-3 / analyse=0x3:0x113 / me=umh / subme=11 / psy=1 / fade_compensate=0.00 / psy_rd=1.00:0.00 / mixed_ref=1 / me_range=32 / chroma_me=1 / trellis=2 / 8x8dct=1 / cqm=0 / deadzone=21,11 / fast_pskip=0 / chroma_qp_offset=-2 / threads=25 / lookahead_threads=6 / sliced_threads=0 / nr=0 / decimate=0 / interlaced=0 / bluray_compat=0 / constrained_intra=0 / fgo=0 / bframes=12 / b_pyramid=2 / b_adapt=2 / b_bias=0 / direct=3 / weightb=1 / open_gop=0 / weightp=2 / keyint=250 / keyint_min=23 / scenecut=40 / intra_refresh=0 / rc_lookahead=60 / rc=crf / mbtree=0 / crf=17.8000 / qcomp=0.65 / qpmin=0:0:0 / qpmax=69:69:69 / qpstep=4 / vbv_maxrate=62500 / vbv_bufsize=78125 / crf_max=0.0 / nal_hrd=none / filler=0 / ip_ratio=1.30 / pb_ratio=1.20 / aq=3:0.80 / aq-sensitivity=10.00 / aq-factor=1.00:1.00:1.00 / aq2=0 / aq3=0 / zones=2760,7802,crf=17.3/11378,16639,crf=16.3/19879,25375,crf=17.3/26407,42638,crf=16.8/47078,53174,crf=17.3/63758,72542,crf=17.3/86537,112913,crf=16.8/113258,116426,crf=16.8
Language                                 : English
Default                                  : Yes
Forced                                   : No
Color range                              : Limited
Color primaries                          : BT.709
Transfer characteristics                 : BT.709
Matrix coefficients                      : BT.709

Audio
ID                                       : 2
Format                                   : E-AC-3
Format/Info                              : Enhanced AC-3
Commercial name                          : Dolby Digital Plus
Codec ID                                 : A_EAC3
Duration                                 : 1 h 27 min
Bit rate mode                            : Constant
Bit rate                                 : 1 024 kb/s
Channel(s)                               : 6 channels
Channel layout                           : L R C LFE Ls Rs
Sampling rate                            : 48.0 kHz
Frame rate                               : 31.250 FPS (1536 SPF)
Compression mode                         : Lossy
Stream size                              : 640 MiB (7%)
Title                                    : E-AC3 DD+5.1 1024kbs
Language                                 : English
Service kind                             : Complete Main
Default                                  : Yes
Forced                                   : No

Text #1
ID                                       : 3
Format                                   : UTF-8
Codec ID                                 : S_TEXT/UTF8
Codec ID/Info                            : UTF-8 Plain Text
Duration                                 : 1 h 19 min
Bit rate                                 : 50 b/s
Count of elements                        : 1234
Stream size                              : 29.6 KiB (0%)
Title                                    : Full .srt
Language                                 : English
Default                                  : No
Forced                                   : No

Text #2
ID                                       : 4
Format                                   : UTF-8
Codec ID                                 : S_TEXT/UTF8
Codec ID/Info                            : UTF-8 Plain Text
Duration                                 : 1 h 22 min
Bit rate                                 : 56 b/s
Count of elements                        : 1501
Stream size                              : 34.1 KiB (0%)
Title                                    : SDH .srt
Language                                 : English
Default                                  : No
Forced                                   : No

Menu
00:00:00.000                             : en:Chapter 01
00:07:54.766                             : en:Chapter 02
00:17:38.140                             : en:Chapter 03
00:24:59.081                             : en:Chapter 04
00:29:37.067                             : en:Chapter 05
00:34:17.889                             : en:Chapter 06
00:43:25.770                             : en:Chapter 07
00:50:25.773                             : en:Chapter 08
00:58:03.939                             : en:Chapter 09
01:05:41.646                             : en:Chapter 10
01:10:52.999                             : en:Chapter 11
01:20:53.641                             : en:Chapter 12
[/url][/url][/url]



                                                                                                                                                                                                        
                                                                                                                                                                                                                                                                                                                                                                                                                                                                                                                                                                                                                                                                                                                                                                                                                                                         d03deb301b2704286df7addbdfca7d0d.zip (45.32 KB, 下载次数: 0)

回复

使用道具 举报

小黑屋|百度云资源论坛 |网站地图

本网站所有资源来自网络,如无意中侵犯了您的权益,请发邮件至 [email protected],立即清除相关链接

GMT+8, 2020-12-3 03:10 , Processed in 0.111838 second(s), 23 queries .

Powered by Discuz! X3.2

© 2001-2013 Comsenz Inc.

快速回复 返回顶部 返回列表