百度云资源论坛

 找回密码
 立即注册
搜索

黑鸟 Blackbird.2019.1080p.BluRay.x264-PiGNUS 7.73GB

[复制链接]
百度云资源 发表于 2020-11-12 12:15:41 | 显示全部楼层 |阅读模式
帖子完整标题:黑鸟 Blackbird.2019.1080p.BluRay.x264-PiGNUS 7.73GB


[/url]

◎译  名 黑鸟/Silent Heart/沉默的心/说不出的告别(台)
◎片  名 Blackbird
◎年  代 2019
◎产  地 美国,英国
◎类  别 剧情
◎语  言 英语
◎上映日期 2019-09-06(多伦多电影节) / 2020-09-18(美国)
◎IMDb评分  6.3/10 from 951 users
◎  
◎豆瓣评分 7.0/10 from 198 users
◎ 
◎片  长 97分钟
◎导  演 罗杰·米歇尔 Roger Michell
◎编  剧 克里斯蒂安·托普 Christian Torpe
◎主  演 苏珊·萨兰登 Susan Sarandon
       凯特·温丝莱特 Kate Winslet
       米娅·华希科沃斯卡 Mia Wasikowska
       安森·布恩 Anson Boon
       山姆·尼尔 Sam Neill
       雷恩·威尔森 Rainn Wilson
       琳赛·邓肯 Lindsay Duncan
       贝克斯·泰勒-克劳斯 Bex Taylor-Klaus

◎标  签 美国 | 剧情 | 家庭 | 凯特·温丝莱特 | 苏珊·萨兰登 | 米娅·华希科沃斯卡 | KateWinslet | 2019

◎简  介

  苏珊·萨兰登加盟罗杰·米歇尔执导,凯特·温丝莱特、米娅·华希科沃斯卡主演的美版[沉默的心](Silent Heart)(此前影片命名为[黑鸟]),此前黛安·基顿加盟该片,而此次苏珊·萨兰登加盟将代替黛安·基顿。与此同时山姆·尼尔、雷恩·威尔森、贝克斯·泰勒-克劳斯、琳赛·邓肯也加盟该片。该片翻拍自2014比利·奥古斯特执导的同名影片。故事讲述身患绝症的母亲莉莉(莎兰登饰)在自杀前,她和两个女儿(温丝莱特、华希科沃斯卡饰)以及其他家人展开了最后一次聚会。该片下周伦敦展开拍摄。

◎获奖情况

  第67届圣塞巴斯蒂安国际电影节 ?(2019)
  金贝壳奖(提名) 罗杰·米歇尔
Video
ID                                       : 1
Format                                   : AVC
Format/Info                              : Advanced Video Codec
Format profile                           :
Format settings                          : CABAC / 5 Ref Frames
Format settings, CABAC                   : Yes
Format settings, Reference frames        : 5 frames
Codec ID                                 : V_MPEG4/ISO/AVC
Duration                                 : 1 h 37 min
Bit rate                                 : 7 900 kb/s
Width                                    : 1 920 pixels
Height                                   : 800 pixels
Display aspect ratio                     : 2.40:1
Frame rate mode                          : Constant
Frame rate                               : 23.976 (24000/1001/189150) FPS
Color space                              : YUV
Chroma subsampling                       : 4:2:0
Bit depth                                : 8 bits
Scan type                                : Progressive
Bits/(Pixel*Frame)                       : 0.215
Stream size                              : 5.40 GiB (70%)
Writing library                          : x264 core 161 r3027 4121277
Encoding settings                        : cabac=1 / ref=5 / deblock=1:-3:-3 / analyse=0x3:0x133 / me=umh / subme=9 / psy=1 / psy_rd=1.00:0.00 / mixed_ref=1 / me_range=16 / chroma_me=1 / trellis=2 / 8x8dct=1 / cqm=0 / deadzone=21,11 / fast_pskip=1 / chroma_qp_offset=-2 / threads=25 / lookahead_threads=2 / sliced_threads=0 / nr=0 / decimate=1 / interlaced=0 / bluray_compat=0 / constrained_intra=0 / bframes=3 / b_pyramid=2 / b_adapt=2 / b_bias=0 / direct=3 / weightb=1 / open_gop=0 / weightp=2 / keyint=250 / keyint_min=23 / scenecut=40 / intra_refresh=0 / rc_lookahead=60 / rc=crf / mbtree=1 / crf=15.5 / qcomp=0.60 / qpmin=0 / qpmax=69 / qpstep=4 / ip_ratio=1.40 / aq=1:1.00
Language                                 : English
Default                                  : Yes
Forced                                   : No

Audio
ID                                       : 2
Format                                   : DTS XLL
Format/Info                              : Digital Theater Systems
Commercial name                          : DTS-HD Master Audio
Codec ID                                 : A_DTS
Duration                                 : 1 h 37 min
Bit rate mode                            : Variable
Bit rate                                 : 3 356 kb/s
Channel(s)                               : 6 channels
Channel layout                           : C L R Ls Rs LFE
Sampling rate                            : 48.0 kHz
Frame rate                               : 93.750 FPS (512 SPF)
Bit depth                                : 24 bits
Compression mode                         : Lossless
Stream size                              : 2.29 GiB (30%)
Language                                 : English
Default                                  : Yes
Forced                                   : No

Text
ID                                       : 3
Format                                   : PGS
Muxing mode                              : zlib
Codec ID                                 : S_HDMV/PGS
Codec ID/Info                            : Picture based subtitle format used on BDs/HD-DVDs
Duration                                 : 1 h 33 min
Bit rate                                 : 66.4 kb/s
Count of elements                        : 3666
Stream size                              : 44.4 MiB (1%)
Title                                    : English SDH
Language                                 : English
Default                                  : No
Forced                                   : No

Menu
00:00:00.000                             : en:Chapter 01
00:06:03.029                             : en:Chapter 02
00:18:28.190                             : en:Chapter 03
00:27:24.685                             : en:Chapter 04
00:33:13.408                             : en:Chapter 05
00:41:14.847                             : en:Chapter 06
00:47:47.114                             : en:Chapter 07
00:54:35.522                             : en:Chapter 08
00:59:49.920                             : en:Chapter 09
01:13:44.378                             : en:Chapter 10
01:22:06.421                             : en:Chapter 11
01:33:11.252                             : en:Chapter 12
[/url]



                                                                                                                                                                                                        
                                                                                                                                                                                                                                                                                                                                                                                                                                                                                                                                                                                                                                                                                                                                                                                                                                                         8c8fe6b8e4ff62475b75de153f07a7fa.zip (39.32 KB, 下载次数: 0)

回复

使用道具 举报

小黑屋|百度云资源论坛 |网站地图

本网站所有资源来自网络,如无意中侵犯了您的权益,请发邮件至 [email protected],立即清除相关链接

GMT+8, 2020-12-2 14:13 , Processed in 0.098043 second(s), 23 queries .

Powered by Discuz! X3.2

© 2001-2013 Comsenz Inc.

快速回复 返回顶部 返回列表