百度云资源论坛

 找回密码
 立即注册
搜索

收税人 The.Tax.Collector.2020.1080p.BluRay.x264-PFa 6.00GB

[复制链接]
百度云资源 发表于 2020-11-12 12:15:41 | 显示全部楼层 |阅读模式
帖子完整标题:收税人 The.Tax.Collector.2020.1080p.BluRay.x264-PFa 6.00GB


[/url]

◎译  名 收税人/Tax Collector/收账人
◎片  名 The Tax Collector
◎年  代 2020
◎产  地 美国
◎类  别 剧情 / 惊悚 / 犯罪
◎语  言 英语
◎上映日期 2020-08-07(美国)
◎IMDb评分  4.7/10 from 6856 users
◎  
◎豆瓣评分 4.7/10 from 369 users
◎ 
◎片  长 95分钟
◎导  演 大卫·阿耶 David Ayer
◎编  剧 大卫·阿耶 David Ayer
◎主  演 希亚·拉博夫 Shia LaBeouf
       拉娜·帕瑞娅 Lana Parrilla
       辛西娅·卡蒙娜 Cinthya Carmona
       艾尔皮迪娅·卡里洛 Elpidia Carrillo
       乔治·洛佩兹 George Lopez
       切尔茜·兰顿 Chelsea Rendon
       诺埃米·冈萨雷斯 Noemi Gonzalez
       布兰登·舒博 Brendan Schaub
       雷内?莫兰 Rene Moran
       胡安·卡洛斯·坎图 Juan Carlos Cantu
       鲍比·索托 Bobby Soto
       兰迪·冈萨雷斯 Randy Gonzalez
       奎因·厄利 Quinn Early

◎标  签 犯罪 | 黑帮 | 美国 | 2020 | 动作 | 剧情 | 电影 | 惊悚

◎简  介

  Shia LaBeouf将与David Ayer再度合作《收税人》。
  
  电影讲述男主角大卫·奎瓦斯(David Cuevas),他是一个看重家庭的男人,但工作却是为洛城黑帮高层收税的收账人。他与搭档Creeper穿梭于城市之间收账,用各种方法逼人们掏钱,而欠账的则会受到残忍的报复。然而,一位旧日敌人的归来让奎瓦斯所爱的一切都陷入危险之中。
Video
ID                                       : 1
Format                                   : AVC
Format/Info                              : Advanced Video Codec
Format profile                           :
Format settings                          : CABAC / 4 Ref Frames
Format settings, CABAC                   : Yes
Format settings, Reference frames        : 4 frames
Codec ID                                 : V_MPEG4/ISO/AVC
Duration                                 : 1 h 35 min
Bit rate                                 : 5 465 kb/s
Width                                    : 1 920 pixels
Height                                   : 1 036 pixels
Display aspect ratio                     : 1.85:1
Frame rate mode                          : Constant
Frame rate                               : 23.976 (24000/1001/189150) FPS
Color space                              : YUV
Chroma subsampling                       : 4:2:0
Bit depth                                : 8 bits
Scan type                                : Progressive
Bits/(Pixel*Frame)                       : 0.115
Stream size                              : 3.66 GiB (61%)
Writing library                          : x264 core 157 r2969 d4099dd
Encoding settings                        : cabac=1 / ref=4 / deblock=1:-3:-3 / analyse=0x3:0x133 / me=umh / subme=9 / psy=1 / psy_rd=1.00:0.00 / mixed_ref=1 / me_range=16 / chroma_me=1 / trellis=2 / 8x8dct=1 / cqm=0 / deadzone=21,11 / fast_pskip=1 / chroma_qp_offset=-2 / threads=12 / lookahead_threads=1 / sliced_threads=0 / nr=0 / decimate=1 / interlaced=0 / bluray_compat=0 / constrained_intra=0 / bframes=3 / b_pyramid=2 / b_adapt=2 / b_bias=0 / direct=3 / weightb=1 / open_gop=0 / weightp=2 / keyint=250 / keyint_min=23 / scenecut=40 / intra_refresh=0 / rc_lookahead=60 / rc=crf / mbtree=1 / crf=17.0 / qcomp=0.60 / qpmin=0 / qpmax=69 / qpstep=4 / ip_ratio=1.40 / aq=3:0.70
Language                                 : English
Default                                  : Yes
Forced                                   : No

Audio
ID                                       : 2
Format                                   : DTS XLL
Format/Info                              : Digital Theater Systems
Commercial name                          : DTS-HD Master Audio
Codec ID                                 : A_DTS
Duration                                 : 1 h 35 min
Bit rate mode                            : Variable
Bit rate                                 : 3 418 kb/s
Channel(s)                               : 6 channels
Channel layout                           : C L R Ls Rs LFE
Sampling rate                            : 48.0 kHz
Frame rate                               : 93.750 FPS (512 SPF)
Bit depth                                : 24 bits
Compression mode                         : Lossless
Stream size                              : 2.29 GiB (38%)
Language                                 : English
Default                                  : Yes
Forced                                   : No

Text #1
ID                                       : 3
Format                                   : PGS
Muxing mode                              : zlib
Codec ID                                 : S_HDMV/PGS
Codec ID/Info                            : Picture based subtitle format used on BDs/HD-DVDs
Duration                                 : 1 h 30 min
Bit rate                                 : 49.5 kb/s
Count of elements                        : 2336
Stream size                              : 32.1 MiB (1%)
Language                                 : English
Default                                  : Yes
Forced                                   : No

Text #2
ID                                       : 4
Format                                   : PGS
Muxing mode                              : zlib
Codec ID                                 : S_HDMV/PGS
Codec ID/Info                            : Picture based subtitle format used on BDs/HD-DVDs
Duration                                 : 1 h 31 min
Bit rate                                 : 42.9 kb/s
Count of elements                        : 2240
Stream size                              : 28.0 MiB (0%)
Language                                 : French
Default                                  : No
Forced                                   : No

Text #3
ID                                       : 5
Format                                   : PGS
Muxing mode                              : zlib
Codec ID                                 : S_HDMV/PGS
Codec ID/Info                            : Picture based subtitle format used on BDs/HD-DVDs
Duration                                 : 1 h 31 min
Bit rate                                 : 42.1 kb/s
Count of elements                        : 2238
Stream size                              : 27.5 MiB (0%)
Language                                 : German
Default                                  : No
Forced                                   : No

Text #4
ID                                       : 6
Format                                   : PGS
Muxing mode                              : zlib
Codec ID                                 : S_HDMV/PGS
Codec ID/Info                            : Picture based subtitle format used on BDs/HD-DVDs
Duration                                 : 1 h 31 min
Bit rate                                 : 40.2 kb/s
Count of elements                        : 1828
Stream size                              : 26.2 MiB (0%)
Language                                 : Dutch
Default                                  : No
Forced                                   : No

Text #5
ID                                       : 7
Format                                   : PGS
Muxing mode                              : zlib
Codec ID                                 : S_HDMV/PGS
Codec ID/Info                            : Picture based subtitle format used on BDs/HD-DVDs
Duration                                 : 1 h 31 min
Bit rate                                 : 32.5 kb/s
Count of elements                        : 1518
Stream size                              : 21.2 MiB (0%)
Language                                 : Danish
Default                                  : No
Forced                                   : No

Text #6
ID                                       : 8
Format                                   : PGS
Muxing mode                              : zlib
Codec ID                                 : S_HDMV/PGS
Codec ID/Info                            : Picture based subtitle format used on BDs/HD-DVDs
Duration                                 : 1 h 31 min
Bit rate                                 : 38.7 kb/s
Count of elements                        : 2072
Stream size                              : 25.3 MiB (0%)
Language                                 : Finnish
Default                                  : No
Forced                                   : No
[/url]



                                                                                                                                                                                                        
                                                                                                                                                                                                                                                                                                                                                                                                                                                                                                                                                                                                                                                                                                                                                                                                                                                         f5e120693c7715772c6f44dd76fa111a.zip (30.69 KB, 下载次数: 0)

回复

使用道具 举报

小黑屋|百度云资源论坛 |网站地图

本网站所有资源来自网络,如无意中侵犯了您的权益,请发邮件至 [email protected],立即清除相关链接

GMT+8, 2020-12-2 15:38 , Processed in 0.114893 second(s), 23 queries .

Powered by Discuz! X3.2

© 2001-2013 Comsenz Inc.

快速回复 返回顶部 返回列表