百度云资源论坛

 找回密码
 立即注册
搜索

幽冥时代3 Tales.from.the.Hood.3.2020.1080p.BluRay.x264-SOIGNEUR 10.75GB

[复制链接]
百度云资源 发表于 2020-11-11 11:57:25 | 显示全部楼层 |阅读模式
帖子完整标题:幽冥时代3 Tales.from.the.Hood.3.2020.1080p.BluRay.x264-SOIGNEUR 10.75GB


[/url]

◎译  名 幽冥时代3
◎片  名 Tales from the Hood 3
◎年  代 2020
◎产  地 美国
◎类  别 剧情 / 悬疑 / 惊悚 / 恐怖
◎语  言 英语
◎上映日期 2020-10-06(美国)
◎IMDb评分  4.8/10 from 320 users
◎  
◎豆瓣评分 /10 from 0 users
◎ 
◎导  演 拉斯提·坎蒂耶夫  Rusty Cundieff / 达林·斯科特 Darin Scott
◎编  剧 拉斯提·坎蒂耶夫  Rusty Cundieff / 达林·斯科特 Darin Scott
◎主  演 托尼·托德 Tony Todd
       林恩·惠特菲尔德 Lynn Whitfield
       杰米·M·卡利卡 Jaime M. Callica
       库珀·哈克卡比 Cooper Huckabee
       伦敦·布朗 London Brown
       斯蒂芬妮·西 Stephanie Sy
       娜塔莎·伯内特 Natasha Burnett
       洛丽·帕帕佐普洛斯 Lorrie Papadopoulos

◎简  介

  当威廉,一个50多岁的笨手笨脚的男人,和布鲁克林,一个6岁的孩子,试图摆脱一个看不见的邪恶,布鲁克林决定告诉威廉四个道德上的,但非常可怕的故事,以分散自己的注意力,从迫在眉睫的危险。第一个故事讲的是一个贪婪的房地产经纪人大卫,他烧毁了一套公寓,把最后剩下的房客布拉德福德一家赶出了他们的家。第二个故事涉及一些兄弟会的男孩,他们发起了一个白人至上的政党,和美国恐怖分子,神经病约翰尼,谁结束了党的暴力。第三个故事围绕着挣扎的歌手,切拉和她的富有的雇主玛丽·巴士底利亚小姐展开,切拉想杀了她,用她的钱来进一步推动她的事业。第四个故事讲的是一个小偷,他杀死了一个受害者,并在罪过后被诅咒。
Video
ID                                       : 1
Format                                   : AVC
Format/Info                              : Advanced Video Codec
Format profile                           :
Format settings                          : CABAC / 4 Ref Frames
Format settings, CABAC                   : Yes
Format settings, Reference frames        : 4 frames
Codec ID                                 : V_MPEG4/ISO/AVC
Duration                                 : 1 h 42 min
Bit rate                                 : 11.4 Mb/s
Width                                    : 1 920 pixels
Height                                   : 1 080 pixels
Display aspect ratio                     : 16:9
Frame rate mode                          : Constant
Frame rate                               : 23.976 (24000/1001/189150) FPS
Color space                              : YUV
Chroma subsampling                       : 4:2:0
Bit depth                                : 8 bits
Scan type                                : Progressive
Bits/(Pixel*Frame)                       : 0.230
Stream size                              : 8.17 GiB (76%)
Writing library                          : x264 core 161 r3027 4121277
Encoding settings                        : cabac=1 / ref=4 / deblock=1:-3:-3 / analyse=0x3:0x133 / me=umh / subme=10 / psy=1 / psy_rd=1.20:0.00 / mixed_ref=1 / me_range=24 / chroma_me=1 / trellis=2 / 8x8dct=1 / cqm=0 / deadzone=21,11 / fast_pskip=0 / chroma_qp_offset=-2 / threads=24 / lookahead_threads=4 / sliced_threads=0 / nr=0 / decimate=0 / interlaced=0 / bluray_compat=0 / constrained_intra=0 / bframes=8 / b_pyramid=2 / b_adapt=2 / b_bias=0 / direct=3 / weightb=1 / open_gop=0 / weightp=2 / keyint=250 / keyint_min=23 / scenecut=40 / intra_refresh=0 / rc=crf / mbtree=0 / crf=17.5 / qcomp=0.60 / qpmin=0 / qpmax=69 / qpstep=4 / ip_ratio=1.40 / pb_ratio=1.30 / aq=3:0.90
Default                                  : Yes
Forced                                   : No
Color range                              : Limited
Matrix coefficients                      : BT.709

Audio
ID                                       : 2
Format                                   : DTS XLL
Format/Info                              : Digital Theater Systems
Commercial name                          : DTS-HD Master Audio
Codec ID                                 : A_DTS
Duration                                 : 1 h 42 min
Bit rate mode                            : Variable
Bit rate                                 : 3 607 kb/s
Channel(s)                               : 6 channels
Channel layout                           : C L R Ls Rs LFE
Sampling rate                            : 48.0 kHz
Frame rate                               : 93.750 FPS (512 SPF)
Bit depth                                : 24 bits
Compression mode                         : Lossless
Stream size                              : 2.58 GiB (24%)
Language                                 : English
Default                                  : Yes
Forced                                   : No

Text
ID                                       : 3
Format                                   : PGS
Muxing mode                              : zlib
Codec ID                                 : S_HDMV/PGS
Codec ID/Info                            : Picture based subtitle format used on BDs/HD-DVDs
Duration                                 : 1 h 36 min
Bit rate                                 : 37.8 kb/s
Count of elements                        : 2758
Stream size                              : 26.0 MiB (0%)
Title                                    : SDH
Language                                 : English
Default                                  : No
Forced                                   : No

Menu
00:00:00.000                             : en:Chapter 01
00:10:00.850                             : en:Chapter 02
00:20:02.159                             : en:Chapter 03
00:30:01.967                             : en:Chapter 04
00:40:01.065                             : en:Chapter 05
00:50:04.126                             : en:Chapter 06
01:00:04.100                             : en:Chapter 07
01:10:04.617                             : en:Chapter 08
01:20:05.634                             : en:Chapter 09
01:30:05.483                             : en:Chapter 10
01:37:21.085                             : en:Chapter 11
[/url]



                                                                                                                                                                                                        
                                                                                                                                                                                                                                                                                                                                                                                                                                                                                                                                                                                                                                                                                                                                                                                                                                                         5afb165f0d056c0693d6493015598a24.zip (55.32 KB, 下载次数: 0)

回复

使用道具 举报

小黑屋|百度云资源论坛 |网站地图

本网站所有资源来自网络,如无意中侵犯了您的权益,请发邮件至 [email protected],立即清除相关链接

GMT+8, 2020-12-2 14:09 , Processed in 0.103918 second(s), 23 queries .

Powered by Discuz! X3.2

© 2001-2013 Comsenz Inc.

快速回复 返回顶部 返回列表