百度云资源论坛

 找回密码
 立即注册
搜索

乳牙/谢谢你爱过我 Babyteeth.2019.720p.BluRay.x264-USURY 4.22GB

[复制链接]
百度云资源 发表于 2020-11-11 11:21:59 | 显示全部楼层 |阅读模式
帖子完整标题:乳牙/谢谢你爱过我 Babyteeth.2019.720p.BluRay.x264-USURY 4.22GB


[/url]

◎译  名 乳牙/谢谢你爱过我(台)
◎片  名 Babyteeth
◎年  代 2019
◎产  地 澳大利亚
◎类  别 剧情 / 喜剧
◎语  言 英语
◎上映日期 2019-09-04(威尼斯电影节) / 2020-06-19(美国)
◎IMDb评分  7.1/10 from 5997 users
◎  
◎豆瓣评分 7.1/10 from 3643 users
◎ 
◎片  长 120分钟
◎导  演 香农·墨菲 Shannon Murphy
◎编  剧 丽塔·卡内贾斯 Rita Kalnejais
◎主  演 本·门德尔森 Ben Mendelsohn
       伊莱扎·斯坎伦 Eliza Scanlen
       埃茜·戴维斯 Essie Davis
       米歇尔·洛特斯 Michelle Lotters
       托比·华莱士 Toby Wallace
       Sora Wakaki
       蕾妮·比尔 Renee Billing
       扎克·格里奇 Zack Grech
       乔治娜·西梅斯 Georgina Symes
       艾米丽·巴克雷 Emily Barclay
       尤金·吉尔福德 Eugene Gilfedder
       Edward Lau
       查尔斯·格朗斯 Charles Grounds
       杰克·雅布斯利 Jack Yabsley
       安德里亚·德梅特里亚德斯 Andrea Demetriades
       贾斯汀·史密斯 Justin Smith
       普里西拉·道伊西 Priscilla Doueihy

◎标  签 澳大利亚 | 青春 | 家庭 | 剧情 | 爱情 | 2019 | 文艺 | 人性

◎简  介

  一对夫妻发现重病的青春期女儿米拉爱上了一个毒贩,二人的关系成为了夫妻俩的噩梦。而濒临死亡的米拉却对生活产生了新的渴望,传统的道德观念也被抛到脑后。米拉向她身边的每个人展示了如何一无所有地生活。这对一个家庭来说,原本可能是一场灾难,但最终却让他们在生活的混乱中找到了平静。

◎获奖情况

  第76届威尼斯电影节 ?(2019)
  主竞赛单元金狮奖(提名) 香农·墨菲
  马塞洛·马斯托依安尼奖(新锐演员奖) 托比·华莱士
  
  第3届平遥国际电影展 ?(2019)
  首映单元最受欢迎影片 香农·墨菲
Video
ID                                       : 1
Format                                   : AVC
Format/Info                              : Advanced Video Codec
Format profile                           :
Format settings                          : CABAC / 9 Ref Frames
Format settings, CABAC                   : Yes
Format settings, Reference frames        : 9 frames
Codec ID                                 : V_MPEG4/ISO/AVC
Duration                                 : 1 h 57 min
Bit rate                                 : 4 486 kb/s
Width                                    : 1 200 pixels
Height                                   : 720 pixels
Display aspect ratio                     : 5:3
Frame rate mode                          : Constant
Frame rate                               : 24.000 FPS
Color space                              : YUV
Chroma subsampling                       : 4:2:0
Bit depth                                : 8 bits
Scan type                                : Progressive
Bits/(Pixel*Frame)                       : 0.216
Stream size                              : 3.69 GiB (87%)
Writing library                          : x264 core 161 r3027 4121277
Encoding settings                        : cabac=1 / ref=9 / deblock=1:-3:-3 / analyse=0x3:0x133 / me=umh / subme=10 / psy=1 / psy_rd=1.00:0.15 / mixed_ref=1 / me_range=24 / chroma_me=1 / trellis=2 / 8x8dct=1 / cqm=0 / deadzone=21,11 / fast_pskip=1 / chroma_qp_offset=-3 / threads=18 / lookahead_threads=3 / sliced_threads=0 / nr=0 / decimate=1 / interlaced=0 / bluray_compat=0 / constrained_intra=0 / bframes=8 / b_pyramid=2 / b_adapt=2 / b_bias=0 / direct=3 / weightb=1 / open_gop=0 / weightp=2 / keyint=250 / keyint_min=24 / scenecut=40 / intra_refresh=0 / rc_lookahead=60 / rc=crf / mbtree=1 / crf=15.0 / qcomp=0.60 / qpmin=0 / qpmax=69 / qpstep=4 / ip_ratio=1.40 / aq=3:0.70
Language                                 : English
Default                                  : Yes
Forced                                   : No
Color range                              : Limited
Matrix coefficients                      : BT.709

Audio
ID                                       : 2
Format                                   : AC-3
Format/Info                              : Audio Coding 3
Commercial name                          : Dolby Digital
Codec ID                                 : A_AC3
Duration                                 : 1 h 57 min
Bit rate mode                            : Constant
Bit rate                                 : 640 kb/s
Channel(s)                               : 6 channels
Channel layout                           : L R C LFE Ls Rs
Sampling rate                            : 48.0 kHz
Frame rate                               : 31.250 FPS (1536 SPF)
Compression mode                         : Lossy
Stream size                              : 539 MiB (12%)
Language                                 : English
Service kind                             : Complete Main
Default                                  : Yes
Forced                                   : No

Text
ID                                       : 3
Format                                   : PGS
Muxing mode                              : zlib
Codec ID                                 : S_HDMV/PGS
Codec ID/Info                            : Picture based subtitle format used on BDs/HD-DVDs
Duration                                 : 1 h 51 min
Bit rate                                 : 11.5 kb/s
Count of elements                        : 2990
Stream size                              : 9.22 MiB (0%)
Title                                    : English SDH
Language                                 : English
Default                                  : No
Forced                                   : No

Menu
00:00:00.000                             : en:00:00:00.000
00:09:29.292                             : en:00:09:29.292
00:17:54.500                             : en:00:17:54.500
00:29:59.542                             : en:00:29:59.542
00:38:33.083                             : en:00:38:33.083
00:45:43.292                             : en:00:45:43.292
01:00:33.750                             : en:01:00:33.750
01:06:29.500                             : en:01:06:29.500
01:13:28.875                             : en:01:13:28.875
01:26:28.250                             : en:01:26:28.250
01:34:21.167                             : en:01:34:21.167
01:52:18.500                             : en:01:52:18.500
[/url]



                                                                                                                                                                                                        
                                                                                                                                                                                                                                                                                                                                                                                                                                                                                                                                                                                                                                                                                                                                                                                                                                                         91052973afc18fc61fb5cea1d715da52.zip (43.71 KB, 下载次数: 0)

回复

使用道具 举报

小黑屋|百度云资源论坛 |网站地图

本网站所有资源来自网络,如无意中侵犯了您的权益,请发邮件至 [email protected],立即清除相关链接

GMT+8, 2020-11-27 07:33 , Processed in 0.103821 second(s), 23 queries .

Powered by Discuz! X3.2

© 2001-2013 Comsenz Inc.

快速回复 返回顶部 返回列表