百度云资源论坛

 找回密码
 立即注册
搜索

灼热 Broil.2020.1080p.BluRay.x264-PiGNUS 5.35GB

[复制链接]
百度云资源 发表于 2020-11-10 11:37:08 | 显示全部楼层 |阅读模式
帖子完整标题:灼热 Broil.2020.1080p.BluRay.x264-PiGNUS 5.35GB


[/url]

◎译  名 灼热
◎片  名 Broil
◎年  代 2020
◎产  地 美国
◎类  别 惊悚 / 恐怖 / 奇幻
◎语  言 英语
◎上映日期 2020-07-05(美国)
◎IMDb评分  5.5/10 from 841 users
◎  
◎豆瓣评分 /10 from 0 users
◎ 
◎主  演 洛奇林·莫罗 Lochlyn Munro
       乔纳森·利普尼基 Jonathan Lipnicki
       蒂莫西·V·墨菲 Timothy V. Murphy
       艾比·罗斯 Abby Ross
       艾莉森·巴思 Alyson Bath
       约翰·卡西尼 John Cassini
       詹娜·伯曼 Jenna Berman
       安妮特·赖利 Annette Reilly
       科里·拉奇 Corey Large
       内尔斯·莱纳森 Nels Lennarson

◎标  签 奇幻 | 美国电影 | 美国 | 惊悚 | 2020 | 恐怖 | 吸血鬼 | 剧情

◎简  介

  A listless grand-daughter, Chance Sinclair (Avery Konrad), is sentenced to live with her draconian grand-father, August (Timothy V. Murphy) after a violent incident at school and begins to question the source of her families immense wealth and power. When Chance's scheming Mom, June (Annette Reilly), hires a troubled chef, Sydney (Johnathan Lipnicki), to poison August, the family's monstrous secrets are revealed over the course of one bloody night. Every soul is up for grabs as The Sinclair Family Games Night gets underway and Chance learns that being apart of this family is a blood-in, blood-out proposition.
Video
ID                                       : 1
Format                                   : AVC
Format/Info                              : Advanced Video Codec
Format profile                           :
Format settings                          : CABAC / 5 Ref Frames
Format settings, CABAC                   : Yes
Format settings, Reference frames        : 5 frames
Codec ID                                 : V_MPEG4/ISO/AVC
Duration                                 : 1 h 30 min
Bit rate                                 : 6 094 kb/s
Width                                    : 1 920 pixels
Height                                   : 804 pixels
Display aspect ratio                     : 2.40:1
Frame rate mode                          : Constant
Frame rate                               : 23.976 (24000/1001/189150) FPS
Color space                              : YUV
Chroma subsampling                       : 4:2:0
Bit depth                                : 8 bits
Scan type                                : Progressive
Bits/(Pixel*Frame)                       : 0.165
Stream size                              : 3.86 GiB (72%)
Writing library                          : x264 core 161 r3027 4121277
Encoding settings                        : cabac=1 / ref=5 / deblock=1:-3:-3 / analyse=0x3:0x133 / me=umh / subme=9 / psy=1 / psy_rd=1.00:0.00 / mixed_ref=1 / me_range=16 / chroma_me=1 / trellis=2 / 8x8dct=1 / cqm=0 / deadzone=21,11 / fast_pskip=1 / chroma_qp_offset=-2 / threads=25 / lookahead_threads=2 / sliced_threads=0 / nr=0 / decimate=1 / interlaced=0 / bluray_compat=0 / constrained_intra=0 / bframes=3 / b_pyramid=2 / b_adapt=2 / b_bias=0 / direct=3 / weightb=1 / open_gop=0 / weightp=2 / keyint=250 / keyint_min=23 / scenecut=40 / intra_refresh=0 / rc_lookahead=60 / rc=crf / mbtree=1 / crf=15.5 / qcomp=0.60 / qpmin=0 / qpmax=69 / qpstep=4 / ip_ratio=1.40 / aq=1:1.00
Language                                 : English
Default                                  : Yes
Forced                                   : No

Audio
ID                                       : 2
Format                                   : DTS XLL
Format/Info                              : Digital Theater Systems
Commercial name                          : DTS-HD Master Audio
Codec ID                                 : A_DTS
Duration                                 : 1 h 30 min
Bit rate mode                            : Variable
Bit rate                                 : 2 348 kb/s
Channel(s)                               : 6 channels
Channel layout                           : C L R Ls Rs LFE
Sampling rate                            : 48.0 kHz
Frame rate                               : 93.750 FPS (512 SPF)
Bit depth                                : 16 bits
Compression mode                         : Lossless
Delay relative to video                  : 2 s 2 ms
Stream size                              : 1.49 GiB (28%)
Language                                 : English
Default                                  : Yes
Forced                                   : No

Text
ID                                       : 3
Format                                   : PGS
Muxing mode                              : zlib
Codec ID                                 : S_HDMV/PGS
Codec ID/Info                            : Picture based subtitle format used on BDs/HD-DVDs
Duration                                 : 1 h 27 min
Bit rate                                 : 32.1 kb/s
Count of elements                        : 2065
Stream size                              : 20.0 MiB (0%)
Title                                    : English
Language                                 : English
Default                                  : No
Forced                                   : No

Menu
00:00:00.000                             : en:Chapter 01
00:06:21.256                             : en:Chapter 02
00:14:29.452                             : en:Chapter 03
00:23:43.839                             : en:Chapter 04
00:29:02.741                             : en:Chapter 05
00:41:30.780                             : en:Chapter 06
00:51:20.828                             : en:Chapter 07
00:57:58.892                             : en:Chapter 08
01:06:52.425                             : en:Chapter 09
01:15:38.743                             : en:Chapter 10
01:28:31.932                             : en:Chapter 11
[/url]



                                                                                                                                                                                                        
                                                                                                                                                                                                                                                                                                                                                                                                                                                                                                                                                                                                                                                                                                                                                                                                                                                         baaa388944ed409b247ba1260536df42.zip (27.44 KB, 下载次数: 0)

回复

使用道具 举报

小黑屋|百度云资源论坛 |网站地图

本网站所有资源来自网络,如无意中侵犯了您的权益,请发邮件至 [email protected],立即清除相关链接

GMT+8, 2020-12-3 02:29 , Processed in 0.134666 second(s), 23 queries .

Powered by Discuz! X3.2

© 2001-2013 Comsenz Inc.

快速回复 返回顶部 返回列表