百度云资源论坛

 找回密码
 立即注册
搜索

非洲功夫战纳粹 African.Kung.Fu.Nazis.2020.1080p.BluRay.x264.DTS-FGT 7....

[复制链接]
百度云电影 发表于 2020-11-10 11:37:08 | 显示全部楼层 |阅读模式
帖子完整标题:非洲功夫战纳粹 African.Kung.Fu.Nazis.2020.1080p.BluRay.x264.DTS-FGT 7.64GB


[/url]

◎译  名 非洲功夫战纳粹
◎片  名 African Kung-Fu Nazis
◎年  代 2020
◎产  地 日本
◎类  别 喜剧 / 动作 / 恐怖
◎语  言 德语
◎上映日期 2020-11-06(德国)
◎IMDb评分  3.5/10 from 57 users
◎  
◎豆瓣评分 /10 from 0 users
◎ 
◎片  长 84分钟

◎简  介

  与历史书告诉我们的不同,阿道夫·希特勒并没有在他的地堡里自杀,而是在他的潜艇里逃往非洲大陆。与他的新手下,臭名昭著的日本军事领导人东条英树和残暴的马夫戈林,他计划再次征服世界——从加纳开始。凭借他忠诚的甘雅利安人(虽然被洗脑了)的力量和他超人的空手道力量,希特勒摧毁了非洲的影蛇功夫学校,杀死了它的领袖。为他的师父悲伤,功夫弟子阿多寻求报复参加了希特勒的武术比赛。他能找到身体和心灵的力量来打败邪恶的独裁者吗?
Video
ID                                       : 1
Format                                   : AVC
Format/Info                              : Advanced Video Codec
Format profile                           :
Format settings                          : CABAC / 4 Ref Frames
Format settings, CABAC                   : Yes
Format settings, Reference frames        : 4 frames
Codec ID                                 : V_MPEG4/ISO/AVC
Duration                                 : 1 h 24 min
Bit rate                                 : 11.5 Mb/s
Width                                    : 1 920 pixels
Height                                   : 1 080 pixels
Display aspect ratio                     : 16:9
Frame rate mode                          : Constant
Frame rate                               : 24.000 FPS
Color space                              : YUV
Chroma subsampling                       : 4:2:0
Bit depth                                : 8 bits
Scan type                                : Progressive
Bits/(Pixel*Frame)                       : 0.231
Stream size                              : 6.75 GiB (88%)
Title                                    : African.Kung.Fu.Nazis.2020.1080p.BluRay.x264.DTS-FGT
Writing library                          : x264 core 148 r2795M aaa9aa8
Encoding settings                        : cabac=1 / ref=4 / deblock=1:-2:-2 / analyse=0x3:0x113 / me=umh / subme=9 / psy=1 / psy_rd=1.00:0.15 / mixed_ref=1 / me_range=16 / chroma_me=1 / trellis=2 / 8x8dct=1 / cqm=0 / deadzone=21,11 / fast_pskip=1 / chroma_qp_offset=-3 / threads=24 / lookahead_threads=3 / sliced_threads=0 / nr=0 / decimate=1 / interlaced=0 / bluray_compat=0 / constrained_intra=0 / bframes=3 / b_pyramid=2 / b_adapt=1 / b_bias=0 / direct=3 / weightb=1 / open_gop=0 / weightp=2 / keyint=250 / keyint_min=25 / scenecut=40 / intra_refresh=0 / rc_lookahead=50 / rc=2pass / mbtree=1 / bitrate=11500 / ratetol=1.0 / qcomp=0.60 / qpmin=0 / qpmax=69 / qpstep=4 / cplxblur=20.0 / qblur=0.5 / vbv_maxrate=31250 / vbv_bufsize=31250 / nal_hrd=none / filler=0 / ip_ratio=1.40 / aq=1:1.00
Language                                 : English
Default                                  : Yes
Forced                                   : No

Audio
ID                                       : 2
ID in the original source medium         : 4353 (0x1101)
Format                                   : DTS
Format/Info                              : Digital Theater Systems
Codec ID                                 : A_DTS
Duration                                 : 1 h 24 min
Bit rate mode                            : Constant
Bit rate                                 : 1 509 kb/s
Channel(s)                               : 2 channels
Channel layout                           : L R
Sampling rate                            : 48.0 kHz
Frame rate                               : 93.750 FPS (512 SPF)
Bit depth                                : 24 bits
Compression mode                         : Lossy
Stream size                              : 907 MiB (12%)
Title                                    : African.Kung.Fu.Nazis.2020.1080p.BluRay.x264.DTS-FGT
Language                                 : English
Default                                  : No
Forced                                   : No
Original source medium                   : Blu-ray

Text
ID                                       : 3
Format                                   : UTF-8
Codec ID                                 : S_TEXT/UTF8
Codec ID/Info                            : UTF-8 Plain Text
Duration                                 : 1 h 22 min
Bit rate                                 : 28 b/s
Count of elements                        : 584
Stream size                              : 17.1 KiB (0%)
Language                                 : English
Default                                  : Yes
Forced                                   : No

Menu
00:00:00.000                             : en:Chapter 01
00:03:28.458                             : en:Chapter 02
00:10:51.791                             : en:Chapter 03
00:17:49.291                             : en:Chapter 04
00:22:23.083                             : en:Chapter 05
00:27:56.416                             : en:Chapter 06
00:33:51.333                             : en:Chapter 07
00:39:25.458                             : en:Chapter 08
00:48:53.833                             : en:Chapter 09
01:00:11.750                             : en:Chapter 10
01:10:27.416                             : en:Chapter 11
01:17:20.916                             : en:Chapter 12
01:22:29.875                             : en:Chapter 13
01:23:53.791                             : en:Chapter 14
[/url][/url]



                                                                                                                                                                                                        
                                                                                                                                                                                                                                                                                                                                                                                                                                                                                                                                                                                                                                                                                                                                                                                                                                                         4b7e482415d45defb05db641cf31437b.zip (38.84 KB, 下载次数: 0)

回复

使用道具 举报

小黑屋|百度云资源论坛 |网站地图

本网站所有资源来自网络,如无意中侵犯了您的权益,请发邮件至 [email protected],立即清除相关链接

GMT+8, 2020-12-3 03:40 , Processed in 0.114053 second(s), 23 queries .

Powered by Discuz! X3.2

© 2001-2013 Comsenz Inc.

快速回复 返回顶部 返回列表