百度云资源论坛

 找回密码
 立即注册
搜索

非常真相 Me.and.Me.2020.1080p.BluRay.x264-GiMCHi 10.74GB

[复制链接]
百度云电影 发表于 2020-11-10 11:37:08 | 显示全部楼层 |阅读模式
帖子完整标题:非常真相 Me.and.Me.2020.1080p.BluRay.x264-GiMCHi 10.74GB


[/url]

◎译  名 非常真相/Me and Me/??? ? ?/双面追缉(台)/流逝的时间/消失的时间
◎片  名 ??? ??
◎年  代 2020
◎产  地 韩国
◎类  别 悬疑
◎语  言 韩语
◎上映日期 2020-06-18(韩国)
◎IMDb评分  5.9/10 from 102 users
◎  
◎豆瓣评分 5.3/10 from 876 users
◎ 
◎片  长 105分钟
◎导  演 郑镇荣 Jin-yeong Jeong
◎编  剧 郑镇荣 Jin-yeong Jeong
◎主  演 赵震雄 Cho Jin-woong
       裴秀彬 Bae Soo Bin
       车秀妍 Su-yeon Cha
       郑海钧 Hae-kyun Jung
       卢康民 No Kang-min
       金胤成 Kim Yoon-seong
       朴斗植 Doo-sik Park
       李善彬 Sun-bin Lee
       申东美 Dong-Mi Shin
       张元英 Won-yeong Jang

◎标  签 韩国 | 悬疑 | 2020 | 剧情 | 犯罪 | 人性 | 电影 | 社会

◎简  介

  秀赫是一个乡村小学的老师。他有一个秘密:每天晚上,他的妻子易英都会变成另一个人。有一天,他的一个学生的父亲知道了他们的秘密,并告知村民易英的身体每晚被一种恶灵所占据。村民一致认为易英非常危险,他们要求易英每晚进入上锁的笼子。结果这对夫妻很快在不明原因的大火中丧生。一名警探被派来调查,他一个接一个地审问村民,村子上的气氛逐渐变得诡异。一天晚上,村民们邀请警探到市政厅喝一杯。喝酒后,警探失去了意识。第二天,警探在之前那个笼子里醒来,但是每个人都称他为“老师”。他意识到自己已经变成了秀赫……
Video
ID                                       : 1
Format                                   : AVC
Format/Info                              : Advanced Video Codec
Format profile                           :
Format settings                          : CABAC / 4 Ref Frames
Format settings, CABAC                   : Yes
Format settings, Reference frames        : 4 frames
Codec ID                                 : V_MPEG4/ISO/AVC
Duration                                 : 1 h 44 min
Bit rate                                 : 11.5 Mb/s
Width                                    : 1 920 pixels
Height                                   : 1 040 pixels
Display aspect ratio                     : 1.85:1
Frame rate mode                          : Constant
Frame rate                               : 23.976 (24000/1001/189150) FPS
Color space                              : YUV
Chroma subsampling                       : 4:2:0
Bit depth                                : 8 bits
Scan type                                : Progressive
Bits/(Pixel*Frame)                       : 0.241
Stream size                              : 8.44 GiB (79%)
Writing library                          : x264 core 161 r3027 4121277
Encoding settings                        : cabac=1 / ref=4 / deblock=1:-3:-3 / analyse=0x3:0x133 / me=umh / subme=9 / psy=1 / psy_rd=1.00:0.00 / mixed_ref=1 / me_range=16 / chroma_me=1 / trellis=2 / 8x8dct=1 / cqm=0 / deadzone=21,11 / fast_pskip=0 / chroma_qp_offset=-2 / threads=12 / lookahead_threads=1 / sliced_threads=0 / nr=0 / decimate=1 / interlaced=0 / bluray_compat=0 / constrained_intra=0 / bframes=3 / b_pyramid=2 / b_adapt=2 / b_bias=0 / direct=3 / weightb=1 / open_gop=0 / weightp=2 / keyint=250 / keyint_min=23 / scenecut=40 / intra_refresh=0 / rc=crf / mbtree=0 / crf=20.0 / qcomp=0.60 / qpmin=0 / qpmax=69 / qpstep=4 / ip_ratio=1.40 / pb_ratio=1.30 / aq=1:1.00
Language                                 : English
Default                                  : Yes
Forced                                   : No

Audio #1
ID                                       : 2
Format                                   : DTS XLL
Format/Info                              : Digital Theater Systems
Commercial name                          : DTS-HD Master Audio
Codec ID                                 : A_DTS
Duration                                 : 1 h 44 min
Bit rate mode                            : Variable
Bit rate                                 : 3 013 kb/s
Channel(s)                               : 6 channels
Channel layout                           : C L R Ls Rs LFE
Sampling rate                            : 48.0 kHz
Frame rate                               : 93.750 FPS (512 SPF)
Bit depth                                : 24 bits
Compression mode                         : Lossless
Stream size                              : 2.21 GiB (21%)
Title                                    : Korean
Language                                 : Korean
Default                                  : Yes
Forced                                   : No

Audio #2
ID                                       : 3
Format                                   : AAC LC
Format/Info                              : Advanced Audio Codec Low Complexity
Codec ID                                 : A_AAC-2
Duration                                 : 1 h 44 min
Bit rate                                 : 96.0 kb/s
Channel(s)                               : 2 channels
Channel layout                           : L R
Sampling rate                            : 48.0 kHz
Frame rate                               : 46.875 FPS (1024 SPF)
Compression mode                         : Lossy
Delay relative to video                  : 9 ms
Stream size                              : 70.9 MiB (1%)
Title                                    : Commentary
Language                                 : Korean
Default                                  : No
Forced                                   : No

Text #1
ID                                       : 4
Format                                   : PGS
Muxing mode                              : zlib
Codec ID                                 : S_HDMV/PGS
Codec ID/Info                            : Picture based subtitle format used on BDs/HD-DVDs
Duration                                 : 1 h 40 min
Bit rate                                 : 24.5 kb/s
Count of elements                        : 2476
Stream size                              : 17.5 MiB (0%)
Title                                    : English
Language                                 : English
Default                                  : Yes
Forced                                   : No

Text #2
ID                                       : 5
Format                                   : PGS
Muxing mode                              : zlib
Codec ID                                 : S_HDMV/PGS
Codec ID/Info                            : Picture based subtitle format used on BDs/HD-DVDs
Duration                                 : 1 h 39 min
Bit rate                                 : 22.3 kb/s
Count of elements                        : 2538
Stream size                              : 16.0 MiB (0%)
Title                                    : Korean
Language                                 : Korean
Default                                  : No
Forced                                   : No

Menu
00:00:00.000                             : en:Chapter 01
00:08:53.992                             : en:Chapter 02
00:17:23.251                             : en:Chapter 03
00:23:41.420                             : en:Chapter 04
00:33:39.434                             : en:Chapter 05
00:44:22.285                             : en:Chapter 06
00:54:33.520                             : en:Chapter 07
01:03:37.063                             : en:Chapter 08
01:11:21.027                             : en:Chapter 09
01:19:35.646                             : en:Chapter 10
01:29:47.757                             : en:Chapter 11
01:41:27.915                             : en:Chapter 12
[/url]



                                                                                                                                                                                                        
                                                                                                                                                                                                                                                                                                                                                                                                                                                                                                                                                                                                                                                                                                                                                                                                                                                         08aa01e197588ba79abc40ca4a978487.zip (54.35 KB, 下载次数: 0)

回复

使用道具 举报

小黑屋|百度云资源论坛 |网站地图

本网站所有资源来自网络,如无意中侵犯了您的权益,请发邮件至 [email protected],立即清除相关链接

GMT+8, 2020-12-3 02:53 , Processed in 0.104602 second(s), 23 queries .

Powered by Discuz! X3.2

© 2001-2013 Comsenz Inc.

快速回复 返回顶部 返回列表