百度云资源论坛

 找回密码
 立即注册
搜索

正直的候选人 Honest.Candidate.2020.1080p.BluRay.x264-GiMCHi 13.19GB

[复制链接]
百度云电影 发表于 2020-11-10 11:37:08 | 显示全部楼层 |阅读模式
帖子完整标题:正直的候选人 Honest.Candidate.2020.1080p.BluRay.x264-GiMCHi 13.19GB


[/url]

◎译  名 正直的候选人/Honest Candidate/政客诚实中(台)/诚实选举妈(港)
◎片  名 ??? ??
◎年  代 2020
◎产  地 韩国
◎类  别 喜剧
◎语  言 韩语
◎上映日期 2020-02-12(韩国)
◎IMDb评分  6.3/10 from 243 users
◎  
◎豆瓣评分 7.1/10 from 12604 users
◎ 
◎片  长 104分钟
◎导  演 张幼珍 Yu-jeong Jang
◎主  演 罗美兰 Mi-ran Ra
       金武烈 Moo-yeol Kim
       罗文姬 Mun-hee Na
       尹敬浩 Kyung-ho Yoon
       宋永彰 Young-chang Song
       温宙完 Ju-wan On
       赵汉哲 Han-chul Jo
       孙钟学 Jong-Hak Son
       赵秀香 Soo-hyang Cho
       张东柱 Dong-joo Jang
       李道烨 Do-yup Lee
       高圭弼 Ko Kyu-pil
       尹世雅 Se-ah Yoon

◎标  签 喜剧 | 韩国 | 罗美兰 | 豹子女士 | 韩国电影 | 政治 | 罗文姬 | 2020

◎简  介

  电影《正直的候选人》是一部讲述最容易说谎的3选国会议员"朱尚淑"(罗美兰饰)在选举前夕的某一天早晨突然无法说谎,而引发的左冲右突的喜剧。
  
  2019年凭借《我身体里的那个家伙》和《女警》的票房成为"喜剧不败演员"的罗美兰,通过《正直的候选人》变身在某一天突然成为了世界上最正直的政治家"朱相淑"回归。 预计演员罗美兰将以特有的喜剧演技再次给观众带来真实的欢笑。
Video
ID                                       : 1
Format                                   : AVC
Format/Info                              : Advanced Video Codec
Format profile                           :
Format settings                          : CABAC / 5 Ref Frames
Format settings, CABAC                   : Yes
Format settings, Reference frames        : 5 frames
Codec ID                                 : V_MPEG4/ISO/AVC
Duration                                 : 1 h 44 min
Bit rate                                 : 14.3 Mb/s
Width                                    : 1 920 pixels
Height                                   : 804 pixels
Display aspect ratio                     : 2.40:1
Frame rate mode                          : Constant
Frame rate                               : 23.976 (24000/1001/189150) FPS
Color space                              : YUV
Chroma subsampling                       : 4:2:0
Bit depth                                : 8 bits
Scan type                                : Progressive
Bits/(Pixel*Frame)                       : 0.387
Stream size                              : 10.5 GiB (79%)
Writing library                          : x264 core 161 r3027 4121277
Encoding settings                        : cabac=1 / ref=5 / deblock=1:-3:-3 / analyse=0x3:0x133 / me=umh / subme=9 / psy=1 / psy_rd=1.00:0.00 / mixed_ref=1 / me_range=16 / chroma_me=1 / trellis=2 / 8x8dct=1 / cqm=0 / deadzone=21,11 / fast_pskip=0 / chroma_qp_offset=-2 / threads=12 / lookahead_threads=1 / sliced_threads=0 / nr=0 / decimate=1 / interlaced=0 / bluray_compat=0 / constrained_intra=0 / bframes=3 / b_pyramid=2 / b_adapt=2 / b_bias=0 / direct=3 / weightb=1 / open_gop=0 / weightp=2 / keyint=250 / keyint_min=23 / scenecut=40 / intra_refresh=0 / rc=crf / mbtree=0 / crf=14.0 / qcomp=0.60 / qpmin=0 / qpmax=69 / qpstep=4 / ip_ratio=1.40 / pb_ratio=1.30 / aq=1:1.00
Language                                 : English
Default                                  : Yes
Forced                                   : No

Audio #1
ID                                       : 2
Format                                   : DTS XLL
Format/Info                              : Digital Theater Systems
Commercial name                          : DTS-HD Master Audio
Codec ID                                 : A_DTS
Duration                                 : 1 h 44 min
Bit rate mode                            : Variable
Bit rate                                 : 3 598 kb/s
Channel(s)                               : 6 channels
Channel layout                           : C L R Ls Rs LFE
Sampling rate                            : 48.0 kHz
Frame rate                               : 93.750 FPS (512 SPF)
Bit depth                                : 24 bits
Compression mode                         : Lossless
Stream size                              : 2.63 GiB (20%)
Title                                    : Korean
Language                                 : Korean
Default                                  : Yes
Forced                                   : No

Audio #2
ID                                       : 3
Format                                   : AAC LC
Format/Info                              : Advanced Audio Codec Low Complexity
Codec ID                                 : A_AAC-2
Duration                                 : 1 h 44 min
Bit rate                                 : 104 kb/s
Channel(s)                               : 2 channels
Channel layout                           : L R
Sampling rate                            : 48.0 kHz
Frame rate                               : 46.875 FPS (1024 SPF)
Compression mode                         : Lossy
Delay relative to video                  : 9 ms
Stream size                              : 77.4 MiB (1%)
Title                                    : Commentary
Language                                 : Korean
Default                                  : No
Forced                                   : No

Text #1
ID                                       : 4
Format                                   : PGS
Muxing mode                              : zlib
Codec ID                                 : S_HDMV/PGS
Codec ID/Info                            : Picture based subtitle format used on BDs/HD-DVDs
Duration                                 : 1 h 39 min
Bit rate                                 : 40.0 kb/s
Count of elements                        : 3069
Stream size                              : 28.4 MiB (0%)
Title                                    : English
Language                                 : English
Default                                  : Yes
Forced                                   : No

Text #2
ID                                       : 5
Format                                   : PGS
Muxing mode                              : zlib
Codec ID                                 : S_HDMV/PGS
Codec ID/Info                            : Picture based subtitle format used on BDs/HD-DVDs
Duration                                 : 1 h 39 min
Bit rate                                 : 31.2 kb/s
Count of elements                        : 3069
Stream size                              : 22.2 MiB (0%)
Title                                    : Korean
Language                                 : Korean
Default                                  : No
Forced                                   : No

Menu
00:00:00.000                             : en:Chapter 01
00:07:11.348                             : en:Chapter 02
00:17:20.539                             : en:Chapter 03
00:28:23.660                             : en:Chapter 04
00:41:46.713                             : en:Chapter 05
00:49:33.596                             : en:Chapter 06
00:58:31.216                             : en:Chapter 07
01:07:22.872                             : en:Chapter 08
01:15:40.578                             : en:Chapter 09
01:24:42.995                             : en:Chapter 10
01:32:48.521                             : en:Chapter 11
01:39:49.358                             : en:Chapter 12
[/url]



                                                                                                                                                                                                        
                                                                                                                                                                                                                                                                                                                                                                                                                                                                                                                                                                                                                                                                                                                                                                                                                                                         887885f597933329b6e7d3333eafd493.zip (67.46 KB, 下载次数: 0)

回复

使用道具 举报

小黑屋|百度云资源论坛 |网站地图

本网站所有资源来自网络,如无意中侵犯了您的权益,请发邮件至 [email protected],立即清除相关链接

GMT+8, 2020-12-3 02:11 , Processed in 0.109811 second(s), 23 queries .

Powered by Discuz! X3.2

© 2001-2013 Comsenz Inc.

快速回复 返回顶部 返回列表