百度云资源论坛

 找回密码
 立即注册
搜索

新婚燕尔/冷战夫妻 Barefoot.In.The.Park.1967.720p.BluRay.x264-SURCODE ...

[复制链接]
百度云电影 发表于 2020-11-10 11:00:58 | 显示全部楼层 |阅读模式
帖子完整标题:新婚燕尔/冷战夫妻 Barefoot.In.The.Park.1967.720p.BluRay.x264-SURCODE 4.93GB


[/url]

◎译  名 新婚燕尔/冷战夫妻(港)/裸婚/裸足佳偶
◎片  名 Barefoot in the Park
◎年  代 1967
◎产  地 美国
◎类  别 喜剧 / 爱情
◎语  言 英语
◎上映日期 1967-12-28
◎IMDb评分  7/10 from 16642 users
◎  
◎豆瓣评分 7.3/10 from 655 users
◎ 
◎片  长 106 分钟
◎导  演 吉恩·萨克斯 Gene Saks
◎编  剧 尼尔·西蒙 Neil Simon
◎主  演 罗伯特·雷德福 Robert Redford
       简·方达 Jane Fonda
       查尔斯·博耶 Charles Boyer
       弗里兹·费尔德 Fritz Feld
       多莉丝·罗伯茨 Doris Roberts
       詹姆斯·斯通 James Stone
       米尔翠德·纳特威克 Mildred Natwick
       Ted Hartley
       John Indrisano
       赫布·埃德尔曼 Herb Edelman
       Paul E. Burns
       比莉·伯德 Billie Bird
       Mabel Albertson

◎标  签 爱情 | 喜剧 | 美国 | RobertRedford | 美国电影 | JaneFonda | 1967 | 1960s

◎简  介

  保罗(罗伯特·雷德福 Robert Redford 饰)是一位年轻的律师,他的性格非常的认真严肃,做什么事情都一板一眼,循规蹈矩。保罗的妻子科瑞(简·方达 Jane Fonda 饰)的性格和丈夫恰恰相反,向来奔放乐天的她喜欢自由自在的生活,脑袋里永远都塞满了稀奇古怪的突发奇想。
  
  夫妻两人居住在一栋没有电梯的公寓里,他们的邻居是一个名叫维克多(查尔斯·博耶 Charles Boyer 饰)的男人,这个古怪的男人常常会来骚扰科瑞,对此,科瑞敢怒不敢言。性格上的巨大差异让所有人都觉得保罗和科瑞的这段婚姻不会有好的下场,但事实真的如此吗?

◎获奖情况

  第40届奥斯卡金像奖 ?(1968)
  最佳女配角(提名) 米尔翠德·纳特威克
Video
ID                                       : 1
Format                                   : AVC
Format/Info                              : Advanced Video Codec
Format profile                           :
Format settings                          : CABAC / 8 Ref Frames
Format settings, CABAC                   : Yes
Format settings, Reference frames        : 8 frames
Codec ID                                 : V_MPEG4/ISO/AVC
Duration                                 : 1 h 46 min
Bit rate                                 : 6 586 kb/s
Width                                    : 1 280 pixels
Height                                   : 720 pixels
Display aspect ratio                     : 16:9
Frame rate mode                          : Constant
Frame rate                               : 23.976 (24000/1001/189150) FPS
Color space                              : YUV
Chroma subsampling                       : 4:2:0
Bit depth                                : 8 bits
Scan type                                : Progressive
Bits/(Pixel*Frame)                       : 0.298
Stream size                              : 4.88 GiB (99%)
Writing library                          : x264 core 161 r3018 db0d417
Encoding settings                        : cabac=1 / ref=8 / deblock=1:-3:-3 / analyse=0x3:0x133 / me=umh / subme=9 / psy=1 / psy_rd=1.00:0.00 / mixed_ref=1 / me_range=16 / chroma_me=1 / trellis=2 / 8x8dct=1 / cqm=0 / deadzone=21,11 / fast_pskip=0 / chroma_qp_offset=-2 / threads=22 / lookahead_threads=1 / sliced_threads=0 / nr=0 / decimate=1 / interlaced=0 / bluray_compat=0 / constrained_intra=0 / bframes=3 / b_pyramid=2 / b_adapt=2 / b_bias=0 / direct=3 / weightb=1 / open_gop=0 / weightp=2 / keyint=250 / keyint_min=23 / scenecut=40 / intra_refresh=0 / rc_lookahead=60 / rc=crf / mbtree=1 / crf=17.3 / qcomp=0.60 / qpmin=0 / qpmax=69 / qpstep=4 / ip_ratio=1.40 / aq=1:1.00
Language                                 : English
Default                                  : Yes
Forced                                   : No

Audio
ID                                       : 2
Format                                   : FLAC
Format/Info                              : Free Lossless Audio Codec
Codec ID                                 : A_FLAC
Bit rate mode                            : Variable
Bit rate                                 : 0 b/s
Channel(s)                               : 2 channels
Channel layout                           : L R
Sampling rate                            : 48.0 kHz
Bit depth                                : 24 bits
Compression mode                         : Lossless
Stream size                              : 0.00 Byte (0%)
Writing library                          : libFLAC 1.3.2 (UTC 2017-01-01)
Language                                 : English
Default                                  : Yes
Forced                                   : No

Text #1
ID                                       : 3
Format                                   : PGS
Muxing mode                              : zlib
Codec ID                                 : S_HDMV/PGS
Codec ID/Info                            : Picture based subtitle format used on BDs/HD-DVDs
Duration                                 : 1 h 43 min
Bit rate                                 : 40.8 kb/s
Count of elements                        : 2768
Stream size                              : 30.3 MiB (1%)
Default                                  : No
Forced                                   : No

Text #2
ID                                       : 4
Format                                   : PGS
Muxing mode                              : zlib
Codec ID                                 : S_HDMV/PGS
Codec ID/Info                            : Picture based subtitle format used on BDs/HD-DVDs
Duration                                 : 1 h 45 min
Bit rate                                 : 52.4 kb/s
Count of elements                        : 3818
Stream size                              : 39.4 MiB (1%)
Default                                  : No
Forced                                   : No

Text #3
ID                                       : 5
Format                                   : PGS
Muxing mode                              : zlib
Codec ID                                 : S_HDMV/PGS
Codec ID/Info                            : Picture based subtitle format used on BDs/HD-DVDs
Duration                                 : 1 h 44 min
Bit rate                                 : 36.2 kb/s
Count of elements                        : 2717
Stream size                              : 27.1 MiB (1%)
Default                                  : No
Forced                                   : No

Text #4
ID                                       : 6
Format                                   : PGS
Muxing mode                              : zlib
Codec ID                                 : S_HDMV/PGS
Codec ID/Info                            : Picture based subtitle format used on BDs/HD-DVDs
Duration                                 : 1 h 44 min
Bit rate                                 : 44.7 kb/s
Count of elements                        : 2740
Stream size                              : 33.3 MiB (1%)
Default                                  : No
Forced                                   : No

Text #5
ID                                       : 7
Format                                   : PGS
Muxing mode                              : zlib
Codec ID                                 : S_HDMV/PGS
Codec ID/Info                            : Picture based subtitle format used on BDs/HD-DVDs
Duration                                 : 1 h 43 min
Bit rate                                 : 22.4 kb/s
Count of elements                        : 2636
Stream size                              : 16.6 MiB (0%)
Default                                  : No
Forced                                   : No

Menu
00:00:00.000                             : en:Kapitel 01
00:04:22.304                             : en:Kapitel 02
00:07:28.573                             : en:Kapitel 03
00:15:53.244                             : en:Kapitel 04
00:24:41.105                             : en:Kapitel 05
00:26:50.275                             : en:Kapitel 06
00:37:24.159                             : en:Kapitel 07
00:44:51.814                             : en:Kapitel 08
00:52:15.632                             : en:Kapitel 09
00:57:32.658                             : en:Kapitel 10
01:03:45.196                             : en:Kapitel 11
01:09:56.692                             : en:Kapitel 12
01:14:10.029                             : en:Kapitel 13
01:18:51.435                             : en:Kapitel 14
01:27:06.471                             : en:Kapitel 15
01:32:43.391                             : en:Kapitel 16
01:39:39.765                             : en:Kapitel 17
01:45:27.404                             : en:Kapitel 18
[/url]



                                                                                                                                                                                                        
                                                                                                                                                                                                                                                                                                                                                                                                                                                                                                                                                                                                                                                                                                                                                                                                                                                         7d907996a91febb5caf5095d641642a3.zip (50.77 KB, 下载次数: 0)

回复

使用道具 举报

小黑屋|百度云资源论坛 |网站地图

本网站所有资源来自网络,如无意中侵犯了您的权益,请发邮件至 [email protected],立即清除相关链接

GMT+8, 2020-11-29 18:59 , Processed in 0.119092 second(s), 23 queries .

Powered by Discuz! X3.2

© 2001-2013 Comsenz Inc.

快速回复 返回顶部 返回列表