百度云资源论坛

 找回密码
 立即注册
搜索

山谷女孩 Valley.Girl.2020.720p.BluRay.x264-PiGNUS 4.68GB

[复制链接]
百度云资源 发表于 2020-11-10 11:00:58 | 显示全部楼层 |阅读模式
帖子完整标题:山谷女孩 Valley.Girl.2020.720p.BluRay.x264-PiGNUS 4.68GB


[/url]

◎译  名 山谷女孩
◎片  名 Valley Girl
◎年  代 2020
◎产  地 美国
◎类  别 喜剧 / 爱情 / 歌舞
◎语  言 英语
◎上映日期 2020-05-08(美国)
◎IMDb评分  5.3/10 from 1725 users
◎  
◎豆瓣评分 /10 from 0 users
◎ 
◎导  演 蕾琪儿·戈登堡 Rachel Goldenberg
◎编  剧 安德鲁·莱恩 Andrew Lane / 詹妮·吕美特 Jenny Lumet / Amy Talkington
◎主  演 杰西卡·罗德 Jessica Rothe
       乔什·怀特豪斯 Josh Whitehouse
       汪可盈 Chloe Bennet
       佩顿·李斯特 Peyton R. List
       梅·惠特曼 Mae Whitman
       杰茜·恩尼斯 Jessie Ennis
       罗根·保罗 Logan Paul
       乔希·法德姆 Josh Fadem
       艾琳·瑞秋 Allyn Rachel
       亚历克斯·马克尼科尔 Alex MacNicoll
       艾什莉·默瑞 Ashleigh Murray
       桑德拉·罗斯科 Sandra Rosko
       丹尼·拉米雷斯 Danny Ramirez
       尼克·德拉戈 Nick Drago
       辛德拉·车 Cindera Che
       小马里奥·昆诺内兹 Mario Quinonez Jr.
       克里斯托弗·塔瓦雷斯 Christopher Tavarez
       曼森·特鲁布拉德 Mason Trueblood
       Heidi Holicker
       Chrystall Friedemann
       马克·卡西米尔·戴妮奇斯 Mark Casimir Dyniewicz
       丹·蒂尔 Dan Thiel
       Kc·莫尼 Kc Monnie
       Kurt Koehler
       桑蒂尔·亚历克西斯·瓦奎兹 Shantiel Alexis Vazquez
       朱莉·施密德 Julie Schmid
       维多利亚·范·弗利特 Victoria Van Fleet
       兰道尔·朴 Randall Park

◎标  签 美国电影 | 美国 | 爱情 | 喜剧 | 2018 | 电影 | 无源 | 杰西卡罗德

◎简  介

  根据1983年的同名电影改编,故事讲述一对崭新的80年代电影原声带,一对来自不同背景的年轻恋人无视父母和朋友在一起。
Video
ID                                       : 1
Format                                   : AVC
Format/Info                              : Advanced Video Codec
Format profile                           :
Format settings                          : CABAC / 8 Ref Frames
Format settings, CABAC                   : Yes
Format settings, Reference frames        : 8 frames
Codec ID                                 : V_MPEG4/ISO/AVC
Duration                                 : 1 h 42 min
Bit rate                                 : 5 863 kb/s
Width                                    : 1 280 pixels
Height                                   : 690 pixels
Display aspect ratio                     : 1.85:1
Frame rate mode                          : Constant
Frame rate                               : 23.976 (24000/1001/189150) FPS
Color space                              : YUV
Chroma subsampling                       : 4:2:0
Bit depth                                : 8 bits
Scan type                                : Progressive
Bits/(Pixel*Frame)                       : 0.277
Stream size                              : 4.21 GiB (90%)
Writing library                          : x264 core 161 r3027 4121277
Encoding settings                        : cabac=1 / ref=8 / deblock=1:-3:-3 / analyse=0x3:0x133 / me=umh / subme=9 / psy=1 / psy_rd=1.00:0.00 / mixed_ref=1 / me_range=16 / chroma_me=1 / trellis=2 / 8x8dct=1 / cqm=0 / deadzone=21,11 / fast_pskip=1 / chroma_qp_offset=-2 / threads=22 / lookahead_threads=1 / sliced_threads=0 / nr=0 / decimate=1 / interlaced=0 / bluray_compat=0 / constrained_intra=0 / bframes=3 / b_pyramid=2 / b_adapt=2 / b_bias=0 / direct=3 / weightb=1 / open_gop=0 / weightp=2 / keyint=250 / keyint_min=23 / scenecut=40 / intra_refresh=0 / rc_lookahead=60 / rc=crf / mbtree=1 / crf=16.0 / qcomp=0.60 / qpmin=0 / qpmax=69 / qpstep=4 / ip_ratio=1.40 / aq=1:1.00
Language                                 : English
Default                                  : Yes
Forced                                   : No

Audio
ID                                       : 2
Format                                   : AC-3
Format/Info                              : Audio Coding 3
Commercial name                          : Dolby Digital
Codec ID                                 : A_AC3
Duration                                 : 1 h 42 min
Bit rate mode                            : Constant
Bit rate                                 : 640 kb/s
Channel(s)                               : 6 channels
Channel layout                           : L R C LFE Ls Rs
Sampling rate                            : 48.0 kHz
Frame rate                               : 31.250 FPS (1536 SPF)
Compression mode                         : Lossy
Stream size                              : 470 MiB (10%)
Language                                 : English
Service kind                             : Complete Main
Default                                  : Yes
Forced                                   : No

Text
ID                                       : 3
Format                                   : PGS
Muxing mode                              : zlib
Codec ID                                 : S_HDMV/PGS
Codec ID/Info                            : Picture based subtitle format used on BDs/HD-DVDs
Duration                                 : 1 h 41 min
Bit rate                                 : 42.9 kb/s
Count of elements                        : 3464
Stream size                              : 31.2 MiB (1%)
Title                                    : English SDH
Language                                 : English
Default                                  : No
Forced                                   : No

Menu
00:00:00.000                             : en:Chapter 01
00:09:45.293                             : en:Chapter 02
00:15:58.916                             : en:Chapter 03
00:22:00.611                             : en:Chapter 04
00:27:38.448                             : en:Chapter 05
00:36:31.898                             : en:Chapter 06
00:45:39.528                             : en:Chapter 07
00:53:35.712                             : en:Chapter 08
01:01:53.251                             : en:Chapter 09
01:09:42.512                             : en:Chapter 10
01:18:54.730                             : en:Chapter 11
01:24:22.724                             : en:Chapter 12
01:31:10.465                             : en:Chapter 13
01:36:36.708                             : en:Chapter 14
[/url]



                                                                                                                                                                                                        
                                                                                                                                                                                                                                                                                                                                                                                                                                                                                                                                                                                                                                                                                                                                                                                                                                                         222429d78b277e025ad48ec65b6eb822.zip (48.31 KB, 下载次数: 0)

回复

使用道具 举报

小黑屋|百度云资源论坛 |网站地图

本网站所有资源来自网络,如无意中侵犯了您的权益,请发邮件至 [email protected],立即清除相关链接

GMT+8, 2020-11-27 08:17 , Processed in 0.101319 second(s), 23 queries .

Powered by Discuz! X3.2

© 2001-2013 Comsenz Inc.

快速回复 返回顶部 返回列表