百度云资源论坛

 找回密码
 立即注册
搜索

战争幽灵/战争中的鬼故事 Ghosts.Of.War.2020.720p.BluRay.x264-FREEMA...

[复制链接]
百度云电影 发表于 2020-11-9 10:36:08 | 显示全部楼层 |阅读模式
帖子完整标题:战争幽灵/战争中的鬼故事 Ghosts.Of.War.2020.720p.BluRay.x264-FREEMAN 2.60GB


[/url]

◎译  名 战争幽灵/战争中的鬼故事(台)
◎片  名 Ghosts of War
◎年  代 2020
◎产  地 英国
◎类  别 惊悚 / 恐怖 / 战争
◎语  言 英语
◎上映日期 2020-07-17(英国)
◎IMDb评分  5.4/10 from 3437 users
◎  
◎豆瓣评分 6.6/10 from 10284 users
◎ 
◎片  长 95分钟
◎导  演 埃里克·布雷斯 Eric Bress
◎编  剧 埃里克·布雷斯 Eric Bress
◎主  演 布伦顿·思韦茨 Brenton Thwaites
       西奥·罗西 Theo Rossi
       凯尔·加尔纳 Kyle Gallner
       斯盖拉·阿斯丁 Skylar Astin
       阿兰·里奇森 Alan Ritchson
       莱拉·班基 Laila Banki
       内森·库珀 Nathan Cooper
       丽贝卡·弗林·怀特 Rebecca Flinn-White
       卡洛延·赫里斯托夫 Kaloyan Hristov
       亚历山大·贝兰·凯什卡 Alexander Behrang Keshtkar
       珊农·麦克凯恩 Shannon McKain
       亚尼莎·米哈伊洛娃 Yanitsa Mihailova
       马修·瑞斯 Matthew Reese
       肖恩·托布  Shaun Toub
       比利·赞恩 Billy Zane

◎标  签 恐怖 | 惊悚 | 战争 | 科幻 | 灵异 | 超自然 | 2020 | 美国

◎简  介

  故事以二战末期为背景,讲述五人美军小队奉命守护一座法国古堡。不料城堡除了残余的敌军,一股超自然的邪恶力量也正在蓄势待发。小队众人也面临着比战场上更加残酷的威胁。
Video
ID                                       : 1
Format                                   : AVC
Format/Info                              : Advanced Video Codec
Format profile                           :
Format settings                          : CABAC / 8 Ref Frames
Format settings, CABAC                   : Yes
Format settings, Reference frames        : 8 frames
Codec ID                                 : V_MPEG4/ISO/AVC
Duration                                 : 1 h 34 min
Bit rate                                 : 3 272 kb/s
Width                                    : 1 280 pixels
Height                                   : 534 pixels
Display aspect ratio                     : 2.40:1
Frame rate mode                          : Constant
Frame rate                               : 24.000 FPS
Color space                              : YUV
Chroma subsampling                       : 4:2:0
Bit depth                                : 8 bits
Scan type                                : Progressive
Bits/(Pixel*Frame)                       : 0.199
Stream size                              : 2.17 GiB (83%)
Writing library                          : x264 core 161 r3018 db0d417
Encoding settings                        : cabac=1 / ref=8 / deblock=1:-3:-3 / analyse=0x3:0x133 / me=umh / subme=9 / psy=1 / psy_rd=1.00:0.00 / mixed_ref=1 / me_range=16 / chroma_me=1 / trellis=2 / 8x8dct=1 / cqm=0 / deadzone=21,11 / fast_pskip=1 / chroma_qp_offset=-2 / threads=17 / lookahead_threads=1 / sliced_threads=0 / nr=0 / decimate=1 / interlaced=0 / bluray_compat=0 / constrained_intra=0 / bframes=3 / b_pyramid=2 / b_adapt=2 / b_bias=0 / direct=3 / weightb=1 / open_gop=0 / weightp=2 / keyint=250 / keyint_min=24 / scenecut=40 / intra_refresh=0 / rc_lookahead=60 / rc=crf / mbtree=1 / crf=17.0 / qcomp=0.60 / qpmin=0 / qpmax=69 / qpstep=4 / ip_ratio=1.40 / aq=3:0.80
Language                                 : English
Default                                  : Yes
Forced                                   : No
Color range                              : Limited
Matrix coefficients                      : BT.709

Audio
ID                                       : 2
Format                                   : AC-3
Format/Info                              : Audio Coding 3
Commercial name                          : Dolby Digital
Codec ID                                 : A_AC3
Duration                                 : 1 h 34 min
Bit rate mode                            : Constant
Bit rate                                 : 640 kb/s
Channel(s)                               : 2 channels
Channel layout                           : L R
Sampling rate                            : 48.0 kHz
Frame rate                               : 31.250 FPS (1536 SPF)
Compression mode                         : Lossy
Stream size                              : 434 MiB (16%)
Title                                    : ac3
Language                                 : English
Service kind                             : Complete Main
Default                                  : Yes
Forced                                   : No

Text #1
ID                                       : 3
Format                                   : UTF-8
Codec ID                                 : S_TEXT/UTF8
Codec ID/Info                            : UTF-8 Plain Text
Duration                                 : 1 h 20 min
Bit rate                                 : 1 b/s
Count of elements                        : 36
Stream size                              : 1.18 KiB (0%)
Title                                    : forced
Language                                 : English
Default                                  : Yes
Forced                                   : No

Text #2
ID                                       : 4
Format                                   : PGS
Muxing mode                              : zlib
Codec ID                                 : S_HDMV/PGS
Codec ID/Info                            : Picture based subtitle format used on BDs/HD-DVDs
Duration                                 : 1 h 26 min
Bit rate                                 : 14.5 kb/s
Count of elements                        : 1456
Stream size                              : 8.98 MiB (0%)
Title                                    : sub
Language                                 : German
Default                                  : No
Forced                                   : No

Menu
00:00:00.000                             : en:00:00:00.000
00:02:47.833                             : en:00:02:47.833
00:09:47.542                             : en:00:09:47.542
00:19:08.625                             : en:00:19:08.625
00:22:22.333                             : en:00:22:22.333
00:25:54.083                             : en:00:25:54.083
00:29:59.292                             : en:00:29:59.292
00:36:36.625                             : en:00:36:36.625
00:46:54.583                             : en:00:46:54.583
00:51:20.500                             : en:00:51:20.500
00:56:07.417                             : en:00:56:07.417
01:03:42.750                             : en:01:03:42.750
01:08:02.833                             : en:01:08:02.833
01:15:33.083                             : en:01:15:33.083
01:23:25.250                             : en:01:23:25.250
01:27:49.542                             : en:01:27:49.542
[/url]



                                                                                                                                                                                                        
                                                                                                                                                                                                                                                                                                                                                                                                                                                                                                                                                                                                                                                                                                                                                                                                                                                         5533f36b78c89599ba9f4dfc517d22cf.zip (27.46 KB, 下载次数: 0)

回复

使用道具 举报

小黑屋|百度云资源论坛 |网站地图

本网站所有资源来自网络,如无意中侵犯了您的权益,请发邮件至 [email protected],立即清除相关链接

GMT+8, 2020-11-27 08:23 , Processed in 0.101842 second(s), 23 queries .

Powered by Discuz! X3.2

© 2001-2013 Comsenz Inc.

快速回复 返回顶部 返回列表