百度云资源论坛

 找回密码
 立即注册
搜索

大旅行 Big.Trip.2019.720p.BluRay.x264-WoAT 2.20GB

[复制链接]
百度云电影 发表于 2020-11-9 10:36:08 | 显示全部楼层 |阅读模式
帖子完整标题:大旅行 Big.Trip.2019.720p.BluRay.x264-WoAT 2.20GB


[/url]

◎译  名 大旅行
◎片  名 the big trip
◎年  代 2019
◎产  地 美国
◎类  别 喜剧 / 动画 / 家庭 / 冒险
◎语  言 英语
◎上映日期 2019-05-01(俄罗斯)
◎IMDb评分  5.1/10 from 920 users
◎  
◎豆瓣评分 /10 from 0 users
◎ 
◎片  长 90分钟

◎标  签 美国 | 移动 | 橙壳 | [動畫] | 2019

◎简  介

  A goofy stork mistakenly delivers a baby panda to the wrong door. A bear, a moose, a tiger and a rabbit set on an arduous but fun filled adventure through wilderness to return the panda to its rightful home.
Video
ID                                       : 1
Format                                   : AVC
Format/Info                              : Advanced Video Codec
Format profile                           :
Format settings                          : CABAC / 8 Ref Frames
Format settings, CABAC                   : Yes
Format settings, Reference frames        : 8 frames
Codec ID                                 : V_MPEG4/ISO/AVC
Duration                                 : 1 h 23 min
Bit rate                                 : 3 102 kb/s
Width                                    : 1 280 pixels
Height                                   : 536 pixels
Display aspect ratio                     : 2.40:1
Frame rate mode                          : Constant
Frame rate                               : 24.000 FPS
Color space                              : YUV
Chroma subsampling                       : 4:2:0
Bit depth                                : 8 bits
Scan type                                : Progressive
Bits/(Pixel*Frame)                       : 0.188
Stream size                              : 1.81 GiB (83%)
Writing library                          : x264 core 161 r3027 4121277
Encoding settings                        : cabac=1 / ref=8 / deblock=1:-3:-3 / analyse=0x3:0x133 / me=umh / subme=9 / psy=1 / psy_rd=1.00:0.00 / mixed_ref=1 / me_range=16 / chroma_me=1 / trellis=2 / 8x8dct=1 / cqm=0 / deadzone=21,11 / fast_pskip=1 / chroma_qp_offset=-2 / threads=17 / lookahead_threads=1 / sliced_threads=0 / nr=0 / decimate=1 / interlaced=0 / bluray_compat=0 / constrained_intra=0 / bframes=3 / b_pyramid=2 / b_adapt=2 / b_bias=0 / direct=3 / weightb=1 / open_gop=0 / weightp=2 / keyint=250 / keyint_min=24 / scenecut=40 / intra_refresh=0 / rc_lookahead=60 / rc=crf / mbtree=1 / crf=19.5 / qcomp=0.60 / qpmin=0 / qpmax=69 / qpstep=4 / ip_ratio=1.40 / aq=3:0.80
Language                                 : English
Default                                  : Yes
Forced                                   : No
Color range                              : Limited
Matrix coefficients                      : BT.709

Audio
ID                                       : 2
Format                                   : AC-3
Format/Info                              : Audio Coding 3
Commercial name                          : Dolby Digital
Codec ID                                 : A_AC3
Duration                                 : 1 h 23 min
Bit rate mode                            : Constant
Bit rate                                 : 640 kb/s
Channel(s)                               : 6 channels
Channel layout                           : L R C LFE Ls Rs
Sampling rate                            : 48.0 kHz
Frame rate                               : 31.250 FPS (1536 SPF)
Compression mode                         : Lossy
Stream size                              : 383 MiB (17%)
Title                                    : 5.1 AC3
Language                                 : English
Service kind                             : Complete Main
Default                                  : No
Forced                                   : No

Text
ID                                       : 3
Format                                   : PGS
Muxing mode                              : zlib
Codec ID                                 : S_HDMV/PGS
Codec ID/Info                            : Picture based subtitle format used on BDs/HD-DVDs
Duration                                 : 1 h 22 min
Bit rate                                 : 27.6 kb/s
Count of elements                        : 1582
Stream size                              : 16.4 MiB (1%)
Title                                    : Dutch
Language                                 : Dutch
Default                                  : Yes
Forced                                   : No

Menu
00:00:00.000                             : en:Chapter 01
00:14:38.625                             : en:Chapter 02
00:27:27.125                             : en:Chapter 03
00:43:52.125                             : en:Chapter 04
00:56:09.833                             : en:Chapter 05
01:07:39.917                             : en:Chapter 06
01:19:32.583                             : en:Chapter 07
[/url]



                                                                                                                                                                                                        
                                                                                                                                                                                                                                                                                                                                                                                                                                                                                                                                                                                                                                                                                                                                                                                                                                                         359154150ebcf808c2e1bd1306f0e7fb.zip (23.42 KB, 下载次数: 0)

回复

使用道具 举报

小黑屋|百度云资源论坛 |网站地图

本网站所有资源来自网络,如无意中侵犯了您的权益,请发邮件至 [email protected],立即清除相关链接

GMT+8, 2020-12-3 08:45 , Processed in 0.100676 second(s), 23 queries .

Powered by Discuz! X3.2

© 2001-2013 Comsenz Inc.

快速回复 返回顶部 返回列表