百度云资源论坛

 找回密码
 立即注册
搜索

苍白之门/苍白的门 The.Pale.Door.2020.720p.BluRay.x264-PiGNUS 6.47GB

[复制链接]
百度云电影 发表于 2020-11-7 16:01:35 | 显示全部楼层 |阅读模式
帖子完整标题:苍白之门/苍白的门 The.Pale.Door.2020.720p.BluRay.x264-PiGNUS 6.47GB


[/url]

◎译  名 苍白之门/苍白的门
◎片  名 The Pale Door
◎年  代 2020
◎产  地 美国
◎类  别 恐怖 / 西部
◎语  言 英语
◎上映日期 2020-08-21(美国)
◎IMDb评分  4.7/10 from 1666 users
◎  
◎豆瓣评分 4.3/10 from 61 users
◎ 
◎导  演 阿伦·库恩兹 Aaron Koontz
◎编  剧 阿伦·库恩兹 Aaron Koontz
◎主  演 梅洛拉·沃尔特斯 Melora Walters
       扎克里·奈顿 Zachary Knighton
       斯坦·肖 Stan Shaw
       比尔·萨奇 Bill Sage
       戴文·德鲁伊 Devin Druid
       诺阿·西甘 Noah Segan
       娜塔莎·巴塞特 Natasha Bassett
       帕特·希利 Pat Healy
       蒂娜·帕克 Tina Parker
       亚历山德拉·哈里斯 Alexandra Harris
       乔尼·马尔斯 Jonny Mars
       达里尔·考克斯 Darryl Cox
       Danielle Evon Ploeger
       霍尔特·鲍格斯 Holt Boggs
       Jeremy King
       格雷格·威廉姆斯 Greg Williams
       杰瑞米·金 Jeremy King

◎标  签 恐怖 | 西部 | 2020 | 美国 | 惊悚 | 美国电影 | 女巫 | 血腥

◎简  介

  火车劫案南下后,道尔顿帮派在一个看似无人居住的鬼城找到了住所。为受伤的领导人寻求帮助,他们惊讶地偶然发现了小镇广场上一个受欢迎的妓院。但是,向她们致意的美女实际上是巫婆之所,对毫无戒心的违法者有非常险恶的计划
Video
ID                                       : 1
Format                                   : AVC
Format/Info                              : Advanced Video Codec
Format profile                           :
Format settings                          : CABAC / 8 Ref Frames
Format settings, CABAC                   : Yes
Format settings, Reference frames        : 8 frames
Codec ID                                 : V_MPEG4/ISO/AVC
Duration                                 : 1 h 36 min
Bit rate                                 : 8 850 kb/s
Width                                    : 1 280 pixels
Height                                   : 682 pixels
Display aspect ratio                     : 1.85:1
Frame rate mode                          : Constant
Frame rate                               : 23.976 (24000/1001/189150) FPS
Color space                              : YUV
Chroma subsampling                       : 4:2:0
Bit depth                                : 8 bits
Scan type                                : Progressive
Bits/(Pixel*Frame)                       : 0.423
Stream size                              : 5.96 GiB (92%)
Writing library                          : x264 core 161 r3027 4121277
Encoding settings                        : cabac=1 / ref=8 / deblock=1:-3:-3 / analyse=0x3:0x133 / me=umh / subme=9 / psy=1 / psy_rd=1.00:0.00 / mixed_ref=1 / me_range=16 / chroma_me=1 / trellis=2 / 8x8dct=1 / cqm=0 / deadzone=21,11 / fast_pskip=1 / chroma_qp_offset=-2 / threads=21 / lookahead_threads=1 / sliced_threads=0 / nr=0 / decimate=1 / interlaced=0 / bluray_compat=0 / constrained_intra=0 / bframes=3 / b_pyramid=2 / b_adapt=2 / b_bias=0 / direct=3 / weightb=1 / open_gop=0 / weightp=2 / keyint=250 / keyint_min=23 / scenecut=40 / intra_refresh=0 / rc_lookahead=60 / rc=crf / mbtree=1 / crf=16.5 / qcomp=0.60 / qpmin=0 / qpmax=69 / qpstep=4 / ip_ratio=1.40 / aq=1:1.00
Language                                 : English
Default                                  : Yes
Forced                                   : No

Audio #1
ID                                       : 2
Format                                   : AC-3
Format/Info                              : Audio Coding 3
Commercial name                          : Dolby Digital
Codec ID                                 : A_AC3
Duration                                 : 1 h 36 min
Bit rate mode                            : Constant
Bit rate                                 : 640 kb/s
Channel(s)                               : 6 channels
Channel layout                           : L R C LFE Ls Rs
Sampling rate                            : 48.0 kHz
Frame rate                               : 31.250 FPS (1536 SPF)
Compression mode                         : Lossy
Stream size                              : 441 MiB (7%)
Language                                 : English
Service kind                             : Complete Main
Default                                  : Yes
Forced                                   : No

Audio #2
ID                                       : 3
Format                                   : AAC LC
Format/Info                              : Advanced Audio Codec Low Complexity
Codec ID                                 : A_AAC-2
Duration                                 : 1 h 36 min
Bit rate                                 : 102 kb/s
Channel(s)                               : 2 channels
Channel layout                           : L R
Sampling rate                            : 48.0 kHz
Frame rate                               : 46.875 FPS (1024 SPF)
Compression mode                         : Lossy
Delay relative to video                  : 9 ms
Stream size                              : 70.1 MiB (1%)
Title                                    : Commentary
Language                                 : English
Default                                  : No
Forced                                   : No

Text #1
ID                                       : 4
Format                                   : PGS
Muxing mode                              : zlib
Codec ID                                 : S_HDMV/PGS
Codec ID/Info                            : Picture based subtitle format used on BDs/HD-DVDs
Duration                                 : 1 h 35 min
Bit rate                                 : 24.5 kb/s
Count of elements                        : 1561
Stream size                              : 16.8 MiB (0%)
Title                                    : English SDH
Language                                 : English
Default                                  : No
Forced                                   : No

Text #2
ID                                       : 5
Format                                   : PGS
Muxing mode                              : zlib
Codec ID                                 : S_HDMV/PGS
Codec ID/Info                            : Picture based subtitle format used on BDs/HD-DVDs
Duration                                 : 1 h 35 min
Bit rate                                 : 21.1 kb/s
Count of elements                        : 1349
Stream size                              : 14.4 MiB (0%)
Title                                    : Spanish
Language                                 : Spanish
Default                                  : No
Forced                                   : No

Menu
00:00:00.000                             : en:Chapter 01
00:09:03.918                             : en:Chapter 02
00:19:00.014                             : en:Chapter 03
00:24:23.796                             : en:Chapter 04
00:29:44.741                             : en:Chapter 05
00:37:32.750                             : en:Chapter 06
00:46:36.711                             : en:Chapter 07
00:54:09.163                             : en:Chapter 08
01:05:45.150                             : en:Chapter 09
01:14:52.905                             : en:Chapter 10
01:24:17.052                             : en:Chapter 11
01:30:43.063                             : en:Chapter 12
[/url]



                                                                                                                                                                                                        
                                                                                                                                                                                                                                                                                                                                                                                                                                                                                                                                                                                                                                                                                                                                                                                                                                                         fd86c8df5011cb50cb83a191da537ced.zip (33.82 KB, 下载次数: 0)

回复

使用道具 举报

小黑屋|百度云资源论坛 |网站地图

本网站所有资源来自网络,如无意中侵犯了您的权益,请发邮件至 [email protected],立即清除相关链接

GMT+8, 2020-11-27 08:16 , Processed in 0.098351 second(s), 23 queries .

Powered by Discuz! X3.2

© 2001-2013 Comsenz Inc.

快速回复 返回顶部 返回列表