百度云资源论坛

 找回密码
 立即注册
搜索

猫狗大战3:爪爪集结! Cats.and.Dogs.3.Paws.Unite.2020.720p.BluRay.x26...

[复制链接]
百度云电影 发表于 2020-11-7 16:01:35 | 显示全部楼层 |阅读模式
帖子完整标题:猫狗大战3:爪爪集结! Cats.and.Dogs.3.Paws.Unite.2020.720p.BluRay.x264-SOIGNEUR 2.75GB


[/url]

◎译  名 猫狗大战3:爪爪集结!
◎片  名 Cats & Dogs 3: Paws Unite!
◎年  代 2020
◎产  地 美国
◎类  别 喜剧 / 动作 / 奇幻
◎语  言 英语
◎上映日期 2020-09-15(美国)
◎IMDb评分  3.4/10 from 364 users
◎  
◎豆瓣评分 4.5/10 from 389 users
◎ 
◎片  长 84分钟
◎导  演 肖恩·麦克纳马拉 Sean McNamara
◎编  剧 斯科特·宾德利 Scott Bindley / 约翰·里夸 John Requa / 格伦·费卡拉 Glenn Ficarra
◎主  演 莎拉·吉尔斯 Sarah Giles
       马克思·格林菲尔德 Max Greenfield
       乔治·洛佩兹 George Lopez
       梅丽莎·劳奇 Melissa Rauch

◎标  签 喜剧 | 动物 | 美国 | 猫狗 | 2020 | 猫狗大战 | 美国电影 | 剧情

◎简  介

  距离第二部后猫狗休战已经过去10年了,猫狗两家共同发明了一种监控系统,维持和平化解冲突。然而当一只精通技术的鹦鹉出现,利用自己的“黑客”技术入侵,并使用猫和狗才能听到的频率来操控它们,世界各地再度爆发猫狗大战!于是,一群没有经验的新手猫狗特工要用最原始的方式来恢复和平。
Video
ID                                       : 1
Format                                   : AVC
Format/Info                              : Advanced Video Codec
Format profile                           :
Format settings                          : CABAC / 9 Ref Frames
Format settings, CABAC                   : Yes
Format settings, Reference frames        : 9 frames
Codec ID                                 : V_MPEG4/ISO/AVC
Duration                                 : 1 h 24 min
Bit rate                                 : 3 931 kb/s
Width                                    : 1 280 pixels
Height                                   : 720 pixels
Display aspect ratio                     : 16:9
Frame rate mode                          : Constant
Frame rate                               : 23.976 (24000/1001/189150) FPS
Color space                              : YUV
Chroma subsampling                       : 4:2:0
Bit depth                                : 8 bits
Scan type                                : Progressive
Bits/(Pixel*Frame)                       : 0.178
Stream size                              : 2.31 GiB (84%)
Writing library                          : x264 core 161 r3027 4121277
Encoding settings                        : cabac=1 / ref=9 / deblock=1:-3:-3 / analyse=0x3:0x133 / me=umh / subme=10 / psy=1 / psy_rd=1.20:0.00 / mixed_ref=1 / me_range=24 / chroma_me=1 / trellis=2 / 8x8dct=1 / cqm=0 / deadzone=21,11 / fast_pskip=0 / chroma_qp_offset=-2 / threads=22 / lookahead_threads=3 / sliced_threads=0 / nr=0 / decimate=0 / interlaced=0 / bluray_compat=0 / constrained_intra=0 / bframes=8 / b_pyramid=2 / b_adapt=2 / b_bias=0 / direct=3 / weightb=1 / open_gop=0 / weightp=2 / keyint=250 / keyint_min=23 / scenecut=40 / intra_refresh=0 / rc=crf / mbtree=0 / crf=17.0 / qcomp=0.60 / qpmin=0 / qpmax=69 / qpstep=4 / ip_ratio=1.40 / pb_ratio=1.30 / aq=3:0.90
Default                                  : Yes
Forced                                   : No
Color range                              : Limited
Matrix coefficients                      : BT.709

Audio
ID                                       : 2
Format                                   : AC-3
Format/Info                              : Audio Coding 3
Commercial name                          : Dolby Digital
Codec ID                                 : A_AC3
Duration                                 : 1 h 24 min
Bit rate mode                            : Constant
Bit rate                                 : 640 kb/s
Channel(s)                               : 6 channels
Channel layout                           : L R C LFE Ls Rs
Sampling rate                            : 48.0 kHz
Frame rate                               : 31.250 FPS (1536 SPF)
Compression mode                         : Lossy
Stream size                              : 385 MiB (14%)
Language                                 : English
Service kind                             : Complete Main
Default                                  : Yes
Forced                                   : No

Text #1
ID                                       : 3
Format                                   : PGS
Muxing mode                              : zlib
Codec ID                                 : S_HDMV/PGS
Codec ID/Info                            : Picture based subtitle format used on BDs/HD-DVDs
Duration                                 : 1 h 23 min
Bit rate                                 : 46.7 kb/s
Count of elements                        : 2776
Stream size                              : 27.8 MiB (1%)
Title                                    : SDH
Language                                 : English
Default                                  : No
Forced                                   : No

Text #2
ID                                       : 4
Format                                   : PGS
Muxing mode                              : zlib
Codec ID                                 : S_HDMV/PGS
Codec ID/Info                            : Picture based subtitle format used on BDs/HD-DVDs
Duration                                 : 1 h 23 min
Bit rate                                 : 37.0 kb/s
Count of elements                        : 2308
Stream size                              : 22.2 MiB (1%)
Language                                 : Danish
Default                                  : No
Forced                                   : No

Text #3
ID                                       : 5
Format                                   : PGS
Muxing mode                              : zlib
Codec ID                                 : S_HDMV/PGS
Codec ID/Info                            : Picture based subtitle format used on BDs/HD-DVDs
Duration                                 : 1 h 23 min
Bit rate                                 : 37.8 kb/s
Count of elements                        : 2164
Stream size                              : 22.6 MiB (1%)
Language                                 : Finnish
Default                                  : No
Forced                                   : No

Text #4
ID                                       : 6
Format                                   : PGS
Muxing mode                              : zlib
Codec ID                                 : S_HDMV/PGS
Codec ID/Info                            : Picture based subtitle format used on BDs/HD-DVDs
Duration                                 : 1 h 23 min
Bit rate                                 : 33.7 kb/s
Count of elements                        : 2214
Stream size                              : 20.2 MiB (1%)
Language                                 : French
Default                                  : No
Forced                                   : No

Text #5
ID                                       : 7
Format                                   : PGS
Muxing mode                              : zlib
Codec ID                                 : S_HDMV/PGS
Codec ID/Info                            : Picture based subtitle format used on BDs/HD-DVDs
Duration                                 : 1 h 23 min
Bit rate                                 : 32.1 kb/s
Count of elements                        : 1888
Stream size                              : 19.3 MiB (1%)
Language                                 : Norwegian
Default                                  : No
Forced                                   : No

Text #6
ID                                       : 8
Format                                   : PGS
Muxing mode                              : zlib
Codec ID                                 : S_HDMV/PGS
Codec ID/Info                            : Picture based subtitle format used on BDs/HD-DVDs
Duration                                 : 1 h 23 min
Bit rate                                 : 37.9 kb/s
Count of elements                        : 2300
Stream size                              : 22.7 MiB (1%)
Language                                 : Spanish
Default                                  : No
Forced                                   : No

Text #7
ID                                       : 9
Format                                   : PGS
Muxing mode                              : zlib
Codec ID                                 : S_HDMV/PGS
Codec ID/Info                            : Picture based subtitle format used on BDs/HD-DVDs
Duration                                 : 1 h 23 min
Bit rate                                 : 35.6 kb/s
Count of elements                        : 2290
Stream size                              : 21.3 MiB (1%)
Language                                 : Swedish
Default                                  : No
Forced                                   : No

Menu
00:00:00.000                             : en:Chapter 01
00:07:39.542                             : en:Chapter 02
00:14:19.609                             : en:Chapter 03
00:21:28.537                             : en:Chapter 04
00:30:17.357                             : en:Chapter 05
00:37:14.065                             : en:Chapter 06
00:44:49.979                             : en:Chapter 07
00:54:02.823                             : en:Chapter 08
01:01:09.499                             : en:Chapter 09
01:07:51.859                             : en:Chapter 10
01:13:19.979                             : en:Chapter 11
01:19:26.679                             : en:Chapter 12




                                                                                                                                                                                                        
                                                                                                                                                                                                                                                                                                                                                                                                                                                                                                                                                                                                                                                                                                                                                                                                                                                         afc3f54c476aaa7138410f8438332250.zip (29.09 KB, 下载次数: 0)

回复

使用道具 举报

小黑屋|百度云资源论坛 |网站地图

本网站所有资源来自网络,如无意中侵犯了您的权益,请发邮件至 [email protected],立即清除相关链接

GMT+8, 2020-11-27 07:31 , Processed in 0.096035 second(s), 23 queries .

Powered by Discuz! X3.2

© 2001-2013 Comsenz Inc.

快速回复 返回顶部 返回列表