百度云资源论坛

 找回密码
 立即注册
搜索

拥有者 The.Owners.2020.720p.BluRay.x264-SOIGNEUR 3.45GB

[复制链接]
百度云资源 发表于 2020-11-7 16:01:35 | 显示全部楼层 |阅读模式
帖子完整标题:拥有者 The.Owners.2020.720p.BluRay.x264-SOIGNEUR 3.45GB


[/url]

◎译  名 拥有者
◎片  名 The Owners
◎年  代 2020
◎产  地 美国
◎类  别 惊悚
◎语  言 英语
◎上映日期 2020-09-04(美国)
◎IMDb评分  4.7/10 from 3165 users
◎  
◎豆瓣评分 4.7/10 from 324 users
◎ 
◎片  长 92分钟
◎导  演 朱利叶斯·伯格 Julius Berg
◎编  剧 朱利叶斯·伯格 Julius Berg
◎主  演 麦茜·威廉姆斯 Maisie Williams
       丽塔·塔欣厄姆 Rita Tushingham
       西尔维斯特·迈可伊 Sylvester McCoy
       杰克·库兰 Jake Curran
       伊安·肯尼 Ian Kenny
       斯塔奇·希克斯 Stacha Hicks
       Andrew Ellis

◎标  签 惊悚 | 犯罪 | 2020 | 恐怖 | 英国 | 美国 | 麦茜·威廉姆斯 | 美国电影

◎简  介

  故事讲述三个年轻人去当地医生家里进行偷窃,意想不到的是,医生提前回到了家中。
Video
ID                                       : 1
Format                                   : AVC
Format/Info                              : Advanced Video Codec
Format profile                           :
Format settings                          : CABAC / 12 Ref Frames
Format settings, CABAC                   : Yes
Format settings, Reference frames        : 12 frames
Codec ID                                 : V_MPEG4/ISO/AVC
Duration                                 : 1 h 31 min
Bit rate                                 : 4 711 kb/s
Width                                    : 1 280 pixels
Height                                   : 536 pixels
Display aspect ratio                     : 2.40:1
Frame rate mode                          : Constant
Frame rate                               : 24.000 FPS
Color space                              : YUV
Chroma subsampling                       : 4:2:0
Bit depth                                : 8 bits
Scan type                                : Progressive
Bits/(Pixel*Frame)                       : 0.286
Stream size                              : 3.02 GiB (88%)
Writing library                          : x264 core 161 r3027 4121277
Encoding settings                        : cabac=1 / ref=12 / deblock=1:-3:-3 / analyse=0x3:0x133 / me=umh / subme=10 / psy=1 / psy_rd=1.20:0.00 / mixed_ref=1 / me_range=24 / chroma_me=1 / trellis=2 / 8x8dct=1 / cqm=0 / deadzone=21,11 / fast_pskip=0 / chroma_qp_offset=-2 / threads=6 / lookahead_threads=1 / sliced_threads=0 / nr=0 / decimate=0 / interlaced=0 / bluray_compat=0 / constrained_intra=0 / bframes=8 / b_pyramid=2 / b_adapt=2 / b_bias=0 / direct=3 / weightb=1 / open_gop=0 / weightp=2 / keyint=250 / keyint_min=24 / scenecut=40 / intra_refresh=0 / rc=crf / mbtree=0 / crf=16.0 / qcomp=0.60 / qpmin=0 / qpmax=69 / qpstep=4 / ip_ratio=1.40 / pb_ratio=1.30 / aq=3:0.90
Default                                  : Yes
Forced                                   : No
Color range                              : Limited
Matrix coefficients                      : BT.709

Audio
ID                                       : 2
Format                                   : AC-3
Format/Info                              : Audio Coding 3
Commercial name                          : Dolby Digital
Codec ID                                 : A_AC3
Duration                                 : 1 h 31 min
Bit rate mode                            : Constant
Bit rate                                 : 640 kb/s
Channel(s)                               : 6 channels
Channel layout                           : L R C LFE Ls Rs
Sampling rate                            : 48.0 kHz
Frame rate                               : 31.250 FPS (1536 SPF)
Compression mode                         : Lossy
Stream size                              : 420 MiB (12%)
Language                                 : English
Service kind                             : Complete Main
Default                                  : Yes
Forced                                   : No

Text #1
ID                                       : 3
Format                                   : PGS
Muxing mode                              : zlib
Codec ID                                 : S_HDMV/PGS
Codec ID/Info                            : Picture based subtitle format used on BDs/HD-DVDs
Duration                                 : 1 h 28 min
Bit rate                                 : 26.0 kb/s
Count of elements                        : 3016
Stream size                              : 16.5 MiB (0%)
Title                                    : SDH
Language                                 : English
Default                                  : No
Forced                                   : No

Text #2
ID                                       : 4
Format                                   : PGS
Muxing mode                              : zlib
Codec ID                                 : S_HDMV/PGS
Codec ID/Info                            : Picture based subtitle format used on BDs/HD-DVDs
Duration                                 : 1 h 26 min
Bit rate                                 : 23.1 kb/s
Count of elements                        : 2640
Stream size                              : 14.3 MiB (0%)
Language                                 : French
Default                                  : No
Forced                                   : No

Text #3
ID                                       : 5
Format                                   : PGS
Muxing mode                              : zlib
Codec ID                                 : S_HDMV/PGS
Codec ID/Info                            : Picture based subtitle format used on BDs/HD-DVDs
Duration                                 : 1 h 28 min
Bit rate                                 : 23.7 kb/s
Count of elements                        : 2804
Stream size                              : 15.0 MiB (0%)
Language                                 : Spanish
Default                                  : No
Forced                                   : No

Menu
00:00:00.000                             : en:Chapter 01
00:10:19.583                             : en:Chapter 02
00:24:54.167                             : en:Chapter 03
00:30:34.000                             : en:Chapter 04
00:42:04.000                             : en:Chapter 05
00:54:45.792                             : en:Chapter 06
01:09:22.833                             : en:Chapter 07
01:29:24.875                             : en:Chapter 08
[/url]



                                                                                                                                                                                                        
                                                                                                                                                                                                                                                                                                                                                                                                                                                                                                                                                                                                                                                                                                                                                                                                                                                         494a958ecd8feb1ab6784df8217d6683.zip (36.01 KB, 下载次数: 0)

回复

使用道具 举报

小黑屋|百度云资源论坛 |网站地图

本网站所有资源来自网络,如无意中侵犯了您的权益,请发邮件至 [email protected],立即清除相关链接

GMT+8, 2020-11-29 18:30 , Processed in 0.105232 second(s), 23 queries .

Powered by Discuz! X3.2

© 2001-2013 Comsenz Inc.

快速回复 返回顶部 返回列表