百度云资源论坛

 找回密码
 立即注册
搜索

末路鸳鸯/新娘向后跑 Heavens.Burning.1997.720p.BluRay.x264-GUACAMOLE ...

[复制链接]
百度云电影 发表于 2020-11-6 12:46:07 | 显示全部楼层 |阅读模式
帖子完整标题:末路鸳鸯/新娘向后跑 Heavens.Burning.1997.720p.BluRay.x264-GUACAMOLE 4.92GB


[/url]

◎译  名 末路鸳鸯/新娘向后跑
◎片  名 Heaven's Burning
◎年  代 1997
◎产  地 澳大利亚
◎类  别 剧情 / 动作 / 爱情 / 惊悚 / 犯罪
◎语  言 日语,英语
◎上映日期 1997-09-04
◎IMDb评分  5.7/10 from 1820 users
◎  
◎豆瓣评分 6.9/10 from 81 users
◎ 
◎片  长 96 分钟
◎导  演 克雷格·拉希夫 Craig Lahiff
◎编  剧 路易·诺维拉 Louis Nowra
◎主  演 帕特里克·杜金 Patrick Duggin
       Garry Waddell
       Ian Turpie
       Julie Sobotta
       罗素·克劳 Russell Crowe
       诺曼·卡耶 Norman Kaye
       Don Barker
       雷特·盖尔斯  Rhett Giles
       雷·巴雷特 Ray Barrett
       Salvatore Coco
       Kate Fitzpatrick
       Colin Hay
       Katherine Halliday
       Anthony Phelan
       工藤夕贵 Youki Kudoh

◎标  签 RussellCrowe | 澳大利亚 | 爱情 | 剧情 | 犯罪 | 动作 | 卢塞尔克劳 | Thriller

◎简  介

  日本新娘Midori为了逃避新婚之夜、然后与情人私奔,自导自演了一出绑架案,但是没想到,计划却有了出乎意料的转变。首先,她的情人没有在约定的时间出现,可怜的Midori只好独自一人在澳洲悉尼游荡。当她进入当地银行兑现零钱时,巧遇一宗由阿富汗难民所主导的抢劫案。在一阵混乱中,抢案失败,劫匪挟持Midori为人质。当歹徒正打算杀她灭口时,他们所雇用的司机Colin竟出面救了Midori。于是,两人携手展开一场横越澳洲的亡命之旅。
  
  但是,日本与澳洲的警方及Midori愤怒疯狂的丈夫都在后紧追不舍。这一对亡命鸳鸯是否能逃出这条不归路?
Video
ID                                       : 1
Format                                   : AVC
Format/Info                              : Advanced Video Codec
Format profile                           :
Format settings                          : CABAC / 8 Ref Frames
Format settings, CABAC                   : Yes
Format settings, Reference frames        : 8 frames
Codec ID                                 : V_MPEG4/ISO/AVC
Duration                                 : 1 h 39 min
Bit rate                                 : 6 299 kb/s
Width                                    : 1 280 pixels
Height                                   : 538 pixels
Display aspect ratio                     : 2.40:1
Frame rate mode                          : Constant
Frame rate                               : 24.000 FPS
Color space                              : YUV
Chroma subsampling                       : 4:2:0
Bit depth                                : 8 bits
Scan type                                : Progressive
Bits/(Pixel*Frame)                       : 0.381
Stream size                              : 4.36 GiB (89%)
Writing library                          : x264 core 161 r3027 4121277
Encoding settings                        : cabac=1 / ref=8 / deblock=1:-3:-3 / analyse=0x3:0x133 / me=umh / subme=9 / psy=1 / psy_rd=1.00:0.00 / mixed_ref=1 / me_range=16 / chroma_me=1 / trellis=2 / 8x8dct=1 / cqm=0 / deadzone=21,11 / fast_pskip=0 / chroma_qp_offset=-2 / threads=17 / lookahead_threads=1 / sliced_threads=0 / nr=0 / decimate=1 / interlaced=0 / bluray_compat=0 / constrained_intra=0 / bframes=3 / b_pyramid=2 / b_adapt=2 / b_bias=0 / direct=3 / weightb=1 / open_gop=0 / weightp=2 / keyint=250 / keyint_min=23 / scenecut=40 / intra_refresh=0 / rc_lookahead=60 / rc=crf / mbtree=1 / crf=17.0 / qcomp=0.60 / qpmin=0 / qpmax=69 / qpstep=4 / ip_ratio=1.40 / aq=3:0.60
Default                                  : Yes
Forced                                   : No
Color range                              : Limited
Matrix coefficients                      : BT.709

Audio #1
ID                                       : 2
Format                                   : AC-3
Format/Info                              : Audio Coding 3
Commercial name                          : Dolby Digital
Codec ID                                 : A_AC3
Duration                                 : 1 h 39 min
Bit rate mode                            : Constant
Bit rate                                 : 640 kb/s
Channel(s)                               : 6 channels
Channel layout                           : L R C LFE Ls Rs
Sampling rate                            : 48.0 kHz
Frame rate                               : 31.250 FPS (1536 SPF)
Compression mode                         : Lossy
Stream size                              : 454 MiB (9%)
Language                                 : English
Service kind                             : Complete Main
Default                                  : Yes
Forced                                   : No

Audio #2
ID                                       : 3
Format                                   : AAC LC
Format/Info                              : Advanced Audio Codec Low Complexity
Codec ID                                 : A_AAC-2
Duration                                 : 1 h 39 min
Bit rate                                 : 144 kb/s
Channel(s)                               : 2 channels
Channel layout                           : L R
Sampling rate                            : 48.0 kHz
Frame rate                               : 46.875 FPS (1024 SPF)
Compression mode                         : Lossy
Stream size                              : 102 MiB (2%)
Language                                 : English
Default                                  : No
Forced                                   : No

Text #1
ID                                       : 4
Format                                   : PGS
Muxing mode                              : zlib
Codec ID                                 : S_HDMV/PGS
Codec ID/Info                            : Picture based subtitle format used on BDs/HD-DVDs
Duration                                 : 1 h 32 min
Bit rate                                 : 12.4 kb/s
Count of elements                        : 1320
Stream size                              : 8.21 MiB (0%)
Title                                    : SDH
Language                                 : English
Default                                  : No
Forced                                   : No

Text #2
ID                                       : 5
Format                                   : PGS
Muxing mode                              : zlib
Codec ID                                 : S_HDMV/PGS
Codec ID/Info                            : Picture based subtitle format used on BDs/HD-DVDs
Duration                                 : 1 h 30 min
Bit rate                                 : 17.0 kb/s
Count of elements                        : 1420
Stream size                              : 11.0 MiB (0%)
Title                                    : SDH
Language                                 : German
Default                                  : No
Forced                                   : No

Menu
00:00:00.000                             : en:00:00:00.000
00:09:54.167                             : en:00:09:54.167
00:17:27.375                             : en:00:17:27.375
00:26:15.375                             : en:00:26:15.375
00:37:03.708                             : en:00:37:03.708
00:48:34.375                             : en:00:48:34.375
01:00:42.292                             : en:01:00:42.292
01:10:16.333                             : en:01:10:16.333
01:17:09.000                             : en:01:17:09.000
01:26:37.167                             : en:01:26:37.167
01:30:14.167                             : en:01:30:14.167
01:36:35.167                             : en:01:36:35.167




                                                                                                                                                                                                        
                                                                                                                                                                                                                                                                                                                                                                                                                                                                                                                                                                                                                                                                                                                                                                                                                                                         1fb29167b092b21624555670ce836eb8.zip (50.65 KB, 下载次数: 0)

回复

使用道具 举报

小黑屋|百度云资源论坛 |网站地图

本网站所有资源来自网络,如无意中侵犯了您的权益,请发邮件至 [email protected],立即清除相关链接

GMT+8, 2020-11-29 17:53 , Processed in 0.103668 second(s), 23 queries .

Powered by Discuz! X3.2

© 2001-2013 Comsenz Inc.

快速回复 返回顶部 返回列表