百度云资源论坛

 找回密码
 立即注册
搜索

等待野蛮人/野蛮真相 Waiting.for.the.Barbarians.2019.720p.BluRay.x264...

[复制链接]
百度云资源 发表于 2020-11-6 12:46:07 | 显示全部楼层 |阅读模式
帖子完整标题:等待野蛮人/野蛮真相 Waiting.for.the.Barbarians.2019.720p.BluRay.x264-SURCODE 3.33GB


[/url]

◎译  名 等待野蛮人/野蛮真相(台)
◎片  名 Waiting for the Barbarians
◎年  代 2019
◎产  地 意大利,美国
◎类  别 剧情
◎语  言 英语
◎上映日期 2019-09-06(威尼斯电影节) / 2020-08-07(美国)
◎IMDb评分  5.8/10 from 4599 users
◎  
◎豆瓣评分 6.4/10 from 1012 users
◎ 
◎片  长 112分钟
◎导  演 西罗·格拉 Ciro Guerra
◎编  剧 J·M·库切 J.M. Coetzee
◎主  演 马克·里朗斯 Mark Rylance
       约翰尼·德普 Johnny Depp
       罗伯特·帕丁森 Robert Pattinson
       嘎娜·巴亚尔赛汗 Gana Bayarsaikhan
       格列塔·斯卡奇 Greta Scacchi
       大卫·丹席克 David Dencik
       萨姆·里德 Sam Reid
       哈利·米尔林 Harry Melling
       比尔·米尔纳 Bill Milner
       Isabella Nefar
       大卫·摩尔斯特 David Moorst
       约瑟夫·朗 Joseph Long
       威尔·柯班 Wil Coban
       法基·埃尔基尔 Faical Elkihel
       保罗·巴泽利 Paul Bazely

◎标  签 小说改编 | 美国 | 剧情 | 约翰尼·德普 | 2019 | JohnnyDepp | 美国电影 | MarkRylance

◎简  介

  根据约翰·马克斯韦尔·库切的同名小说改编,这位诺贝尔文学奖得主将自己的作品改编为剧本。故事的主人公是一位大英帝国海外殖民地的法官,他开始怀疑自己对于帝国的忠诚。

◎获奖情况

  第76届威尼斯电影节 ?(2019)
  主竞赛单元金狮奖(提名) 西罗·格拉
Video
ID                                       : 1
Format                                   : AVC
Format/Info                              : Advanced Video Codec
Format profile                           :
Format settings                          : CABAC / 8 Ref Frames
Format settings, CABAC                   : Yes
Format settings, Reference frames        : 8 frames
Codec ID                                 : V_MPEG4/ISO/AVC
Duration                                 : 1 h 53 min
Bit rate                                 : 3 540 kb/s
Width                                    : 1 280 pixels
Height                                   : 534 pixels
Display aspect ratio                     : 2.40:1
Frame rate mode                          : Constant
Frame rate                               : 23.976 (24000/1001/189150) FPS
Color space                              : YUV
Chroma subsampling                       : 4:2:0
Bit depth                                : 8 bits
Scan type                                : Progressive
Bits/(Pixel*Frame)                       : 0.216
Stream size                              : 2.82 GiB (85%)
Writing library                          : x264 core 161 r3018 db0d417
Encoding settings                        : cabac=1 / ref=8 / deblock=1:-3:-3 / analyse=0x3:0x133 / me=umh / subme=9 / psy=1 / psy_rd=1.00:0.00 / mixed_ref=1 / me_range=16 / chroma_me=1 / trellis=2 / 8x8dct=1 / cqm=0 / deadzone=21,11 / fast_pskip=0 / chroma_qp_offset=-2 / threads=17 / lookahead_threads=1 / sliced_threads=0 / nr=0 / decimate=1 / interlaced=0 / bluray_compat=0 / constrained_intra=0 / bframes=3 / b_pyramid=2 / b_adapt=2 / b_bias=0 / direct=3 / weightb=1 / open_gop=0 / weightp=2 / keyint=250 / keyint_min=23 / scenecut=40 / intra_refresh=0 / rc_lookahead=60 / rc=crf / mbtree=1 / crf=17.0 / qcomp=0.60 / qpmin=0 / qpmax=69 / qpstep=4 / ip_ratio=1.40 / aq=1:1.00
Language                                 : English
Default                                  : Yes
Forced                                   : No

Audio
ID                                       : 2
Format                                   : AC-3
Format/Info                              : Audio Coding 3
Commercial name                          : Dolby Digital
Codec ID                                 : A_AC3
Duration                                 : 1 h 53 min
Bit rate mode                            : Constant
Bit rate                                 : 640 kb/s
Channel(s)                               : 6 channels
Channel layout                           : L R C LFE Ls Rs
Sampling rate                            : 48.0 kHz
Frame rate                               : 31.250 FPS (1536 SPF)
Compression mode                         : Lossy
Stream size                              : 521 MiB (15%)
Service kind                             : Complete Main
Default                                  : Yes
Forced                                   : No

Text #1
ID                                       : 3
Format                                   : UTF-8
Codec ID                                 : S_TEXT/UTF8
Codec ID/Info                            : UTF-8 Plain Text
Duration                                 : 1 h 2 min
Bit rate                                 : 1 b/s
Count of elements                        : 28
Stream size                              : 754 Bytes (0%)
Title                                    : forced srt
Language                                 : English
Default                                  : Yes
Forced                                   : Yes

Text #2
ID                                       : 4
Format                                   : PGS
Muxing mode                              : zlib
Codec ID                                 : S_HDMV/PGS
Codec ID/Info                            : Picture based subtitle format used on BDs/HD-DVDs
Duration                                 : 1 h 2 min
Bit rate                                 : 996 b/s
Count of elements                        : 56
Stream size                              : 456 KiB (0%)
Title                                    : forced
Language                                 : English
Default                                  : No
Forced                                   : No

Text #3
ID                                       : 5
Format                                   : PGS
Muxing mode                              : zlib
Codec ID                                 : S_HDMV/PGS
Codec ID/Info                            : Picture based subtitle format used on BDs/HD-DVDs
Duration                                 : 1 h 53 min
Bit rate                                 : 20.8 kb/s
Count of elements                        : 1646
Stream size                              : 16.9 MiB (0%)
Language                                 : German
Default                                  : No
Forced                                   : No

Menu
00:00:00.000                             : :Kapitel 01
00:03:42.764                             : :Kapitel 02
00:12:18.446                             : :Kapitel 03
00:20:37.111                             : :Kapitel 04
00:30:05.345                             : :Kapitel 05
00:39:08.346                             : :Kapitel 06
00:51:10.234                             : :Kapitel 07
00:58:09.653                             : :Kapitel 08
01:07:15.240                             : :Kapitel 09
01:15:07.336                             : :Kapitel 10
01:24:36.780                             : :Kapitel 11
01:33:25.600                             : :Kapitel 12
01:42:07.330                             : :Kapitel 13
01:49:26.185                             : :Kapitel 14
[/url]



                                                                                                                                                                                                        
                                                                                                                                                                                                                                                                                                                                                                                                                                                                                                                                                                                                                                                                                                                                                                                                                                                         23b5ef26cd2d9ed39e814deff34e11be.zip (34.84 KB, 下载次数: 0)

回复

使用道具 举报

小黑屋|百度云资源论坛 |网站地图

本网站所有资源来自网络,如无意中侵犯了您的权益,请发邮件至 [email protected],立即清除相关链接

GMT+8, 2020-11-27 07:43 , Processed in 0.103555 second(s), 23 queries .

Powered by Discuz! X3.2

© 2001-2013 Comsenz Inc.

快速回复 返回顶部 返回列表