百度云资源论坛

 找回密码
 立即注册
搜索

黑钱飞机 Money.Plane.2020.720p.BluRay.x264-WoAT 3.16GB

[复制链接]
百度云资源 发表于 2020-11-6 12:46:07 | 显示全部楼层 |阅读模式
帖子完整标题:黑钱飞机 Money.Plane.2020.720p.BluRay.x264-WoAT 3.16GB


[/url]

◎译  名 黑钱飞机
◎片  名 Money Plane
◎年  代 2020
◎产  地 美国
◎类  别 动作
◎语  言 英语
◎上映日期 2020-07-10(美国)
◎IMDb评分  4.6/10 from 1670 users
◎  
◎豆瓣评分 /10 from 0 users
◎ 
◎导  演 安德鲁·劳伦斯 Andrew Lawrence
◎编  剧 安德鲁·劳伦斯 Andrew Lawrence / 泰勒·科尼 Tyler W. Konney
◎主  演 丹妮丝·理查兹 Denise Richards
       托马斯·简 Thomas Jane
       马修·劳伦斯 Matthew Lawrence
       约瑟夫·劳伦斯 Joseph Lawrence
       安德鲁·劳伦斯 Andrew Lawrence
       艾吉 Adam Copeland
       阿尔·萨皮恩扎 Al Sapienza
       凯尔希·格兰莫 Kelsey Grammer

◎标  签 美国电影 | 动作 | 2020 | 电影 | 音 | kels | [歐美]

◎简  介

  A professional thief with $40 million in debt and his family's life on the line must commit one final heist - rob a futuristic airborne casino filled with the world's most dangerous criminals.
Video
ID                                       : 1
Format                                   : AVC
Format/Info                              : Advanced Video Codec
Format profile                           :
Format settings                          : CABAC / 8 Ref Frames
Format settings, CABAC                   : Yes
Format settings, Reference frames        : 8 frames
Codec ID                                 : V_MPEG4/ISO/AVC
Duration                                 : 1 h 22 min
Bit rate                                 : 4 868 kb/s
Width                                    : 1 280 pixels
Height                                   : 720 pixels
Display aspect ratio                     : 16:9
Frame rate mode                          : Constant
Frame rate                               : 23.976 (24000/1001/189150) FPS
Color space                              : YUV
Chroma subsampling                       : 4:2:0
Bit depth                                : 8 bits
Scan type                                : Progressive
Bits/(Pixel*Frame)                       : 0.220
Stream size                              : 2.79 GiB (88%)
Writing library                          : x264 core 161 r3027 4121277
Encoding settings                        : cabac=1 / ref=8 / deblock=1:-3:-3 / analyse=0x3:0x133 / me=umh / subme=9 / psy=1 / psy_rd=1.00:0.00 / mixed_ref=1 / me_range=32 / chroma_me=1 / trellis=2 / 8x8dct=1 / cqm=0 / deadzone=21,11 / fast_pskip=0 / chroma_qp_offset=-2 / threads=22 / lookahead_threads=3 / sliced_threads=0 / nr=0 / decimate=0 / interlaced=0 / bluray_compat=0 / constrained_intra=0 / bframes=9 / b_pyramid=2 / b_adapt=2 / b_bias=0 / direct=3 / weightb=1 / open_gop=0 / weightp=2 / keyint=250 / keyint_min=23 / scenecut=40 / intra_refresh=0 / rc=crf / mbtree=0 / crf=17.0 / qcomp=0.60 / qpmin=0 / qpmax=69 / qpstep=4 / ip_ratio=1.40 / pb_ratio=1.30 / aq=3:0.88
Default                                  : Yes
Forced                                   : No
Color range                              : Limited
Matrix coefficients                      : BT.709

Audio
ID                                       : 2
Format                                   : AC-3
Format/Info                              : Audio Coding 3
Commercial name                          : Dolby Digital
Codec ID                                 : A_AC3
Duration                                 : 1 h 22 min
Bit rate mode                            : Constant
Bit rate                                 : 640 kb/s
Channel(s)                               : 6 channels
Channel layout                           : L R C LFE Ls Rs
Sampling rate                            : 48.0 kHz
Frame rate                               : 31.250 FPS (1536 SPF)
Compression mode                         : Lossy
Stream size                              : 376 MiB (12%)
Title                                    : English
Language                                 : English
Service kind                             : Complete Main
Default                                  : No
Forced                                   : No

Text
ID                                       : 3
Format                                   : PGS
Muxing mode                              : zlib
Codec ID                                 : S_HDMV/PGS
Codec ID/Info                            : Picture based subtitle format used on BDs/HD-DVDs
Duration                                 : 1 h 21 min
Bit rate                                 : 25.9 kb/s
Count of elements                        : 1324
Stream size                              : 15.0 MiB (0%)
Title                                    : Dutch
Language                                 : Dutch
Default                                  : No
Forced                                   : No

Menu
00:00:00.000                             : en:Chapter 01
00:10:58.992                             : en:Chapter 02
00:24:30.219                             : en:Chapter 03
00:33:35.555                             : en:Chapter 04
00:43:34.070                             : en:Chapter 05
00:57:17.809                             : en:Chapter 06
01:09:03.723                             : en:Chapter 07
01:19:39.775                             : en:Chapter 08
[/url]



                                                                                                                                                                                                        
                                                                                                                                                                                                                                                                                                                                                                                                                                                                                                                                                                                                                                                                                                                                                                                                                                                         a4bdd8f6b4123011d0025a0b6b29de76.zip (32.3 KB, 下载次数: 0)

回复

使用道具 举报

小黑屋|百度云资源论坛 |网站地图

本网站所有资源来自网络,如无意中侵犯了您的权益,请发邮件至 [email protected],立即清除相关链接

GMT+8, 2020-11-27 07:03 , Processed in 0.100446 second(s), 23 queries .

Powered by Discuz! X3.2

© 2001-2013 Comsenz Inc.

快速回复 返回顶部 返回列表