百度云资源论坛

 找回密码
 立即注册
搜索

了不起的巴斯特 The.Great.Buster.2018.1080p.BluRay.x264.DTS-FGT 9.18GB

[复制链接]
百度云资源 发表于 2020-10-16 07:21:41 | 显示全部楼层 |阅读模式
帖子完整标题:了不起的巴斯特 The.Great.Buster.2018.1080p.BluRay.x264.DTS-FGT 9.18GB




◎译  名 了不起的巴斯特 / The Great Buster / 真喜剧之王:基顿(港)
◎片  名 The Great Buster: A Celebration
◎年  代 2018
◎产  地 美国
◎类  别 纪录片 / 传记
◎语  言 英语
◎上映日期 2018-08-30(威尼斯电影节) / 2018-10-05(美国)
◎IMDb评分  7.5/10 from 878 users
◎片  长 102分钟
◎导  演 彼得·博格丹诺维奇 Peter Bogdanovich
◎编  剧 彼得·博格丹诺维奇 Peter Bogdanovich
◎主  演 巴斯特·基顿 Buster Keaton
       彼得·博格丹诺维奇 Peter Bogdanovich
       梅尔·布鲁克斯 Mel Brooks
       迪克·卡维特 Dick Cavett
       James Curtis
       保罗·杜利 Paul Dooley
       比尔·哈德尔 Bill Hader
       沃纳·赫尔佐格 Werner Herzog
       比尔·欧文 Bill Irwin
       詹姆斯·凯伦 James Karen
       约翰尼·诺克斯维尔 Johnny Knoxville
       尼克·克罗尔 Nick Kroll
       理查德·刘易斯 Richard Lewis
       诺曼·劳埃德 Norman Lloyd
       莱纳德·马尔廷 Leonard Maltin
       卡尔·雷纳 Carl Reiner
       斯碧尔·谢波德 Cybill Shepherd
       弗伦奇·斯图尔特 French Stewart
       昆汀·塔伦蒂诺 Quentin Tarantino
       迪克·范·戴克 Dick Van Dyke
       乔·沃茨 Jon Watts
       奥逊·威尔斯 Orson Welles


◎标  签 纪录片 | 美国 | 传记 | 2018 | 喜剧 | 电影史 | 默片 | 2019

◎简  介   

  提到默片年代的喜剧泰斗,很多人记得差利,其实冷面笑匠巴士达基顿同属殿堂级高手,对后来者一样影响深远。奥逊威尔斯直言钟爱《将军号火车》 (1926)。《七个机会》(1925)被一大群新娘狂追不舍,还有连环闪避巨石的画面,至今仍令人叹为观止。以《最后一场电影》(1971)名留影史的波丹诺维奇,回顾基顿一生起落,从他小时候跟父母表演杂耍说起,再细数其辉煌岁月十部经典杰作,重温那些历久不衰的惊险搞笑绝技。
Video
ID                                       : 1
Format                                   : AVC
Format/Info                              : Advanced Video Codec
Format settings                          : CABAC / 4 Ref Frames
Format settings, CABAC                   : Yes
Format settings, Reference frames        : 4 frames
Codec ID                                 : V_MPEG4/ISO/AVC
Duration                                 : 1 h 41 min
Bit rate                                 : 11.5 Mb/s
Width                                    : 1 920 pixels
Height                                   : 1 080 pixels
Display aspect ratio                     : 16:9
Frame rate mode                          : Constant
Frame rate                               : 23.976 (24000/1001/189150) FPS
Color space                              : YUV
Chroma subsampling                       : 4:2:0
Bit depth                                : 8 bits
Scan type                                : Progressive
Bits/(Pixel*Frame)                       : 0.231
Stream size                              : 8.11 GiB (88%)
Title                                    : The.Great.Buster.2018.1080p.BluRay.x264.DTS-FGT
Writing library                          : x264 core 148 r2795M aaa9aa8
Encoding settings                        : cabac=1 / ref=4 / deblock=1:-2:-2 / analyse=0x3:0x113 / me=umh / subme=9 / psy=1 / psy_rd=1.00:0.15 / mixed_ref=1 / me_range=16 / chroma_me=1 / trellis=2 / 8x8dct=1 / cqm=0 / deadzone=21,11 / fast_pskip=1 / chroma_qp_offset=-3 / threads=24 / lookahead_threads=3 / sliced_threads=0 / nr=0 / decimate=1 / interlaced=0 / bluray_compat=0 / constrained_intra=0 / bframes=3 / b_pyramid=2 / b_adapt=1 / b_bias=0 / direct=3 / weightb=1 / open_gop=0 / weightp=2 / keyint=250 / keyint_min=25 / scenecut=40 / intra_refresh=0 / rc_lookahead=50 / rc=2pass / mbtree=1 / bitrate=11500 / ratetol=1.0 / qcomp=0.60 / qpmin=0 / qpmax=69 / qpstep=4 / cplxblur=20.0 / qblur=0.5 / vbv_maxrate=31250 / vbv_bufsize=31250 / nal_hrd=none / filler=0 / ip_ratio=1.40 / aq=1:1.00
Language                                 : English
Default                                  : Yes
Forced                                   : No

Audio
ID                                       : 2
Format                                   : DTS
Format/Info                              : Digital Theater Systems
Codec ID                                 : A_DTS
Duration                                 : 1 h 41 min
Bit rate mode                            : Constant
Bit rate                                 : 1 509 kb/s
Channel(s)                               : 6 channels
Channel layout                           : C L R Ls Rs LFE
Sampling rate                            : 48.0 kHz
Frame rate                               : 93.750 FPS (512 SPF)
Bit depth                                : 24 bits
Compression mode                         : Lossy
Stream size                              : 1.07 GiB (12%)
Title                                    : The.Great.Buster.2018.1080p.BluRay.x264.DTS-FGT
Language                                 : English
Default                                  : Yes
Forced                                   : No

Menu
00:00:00.000                             : en:Chapter 01
00:06:01.945                             : en:Chapter 02
00:10:25.959                             : en:Chapter 03
00:18:29.900                             : en:Chapter 04
00:26:17.326                             : en:Chapter 05
00:32:56.474                             : en:Chapter 06
00:39:10.557                             : en:Chapter 07
00:43:44.247                             : en:Chapter 08
00:53:50.644                             : en:Chapter 09
01:01:30.979                             : en:Chapter 10
01:05:06.945                             : en:Chapter 11
01:23:39.181                             : en:Chapter 12
01:27:56.813                             : en:Chapter 13
01:32:17.490                             : en:Chapter 14
01:36:09.305                             : en:Chapter 15




                                                                                                                                                                                                        
                                                                                                                                                                                                                                                                                                                                                                                                                                                                                    
66af8b61b4d192d143ed4ea38f6e5e75.zip (46.54 KB, 下载次数: 0)

回复

使用道具 举报

小黑屋|百度云资源论坛 |网站地图

本网站所有资源来自网络,如无意中侵犯了您的权益,请发邮件至 [email protected],立即清除相关链接

GMT+8, 2020-10-28 01:31 , Processed in 0.115363 second(s), 23 queries .

Powered by Discuz! X3.2

© 2001-2013 Comsenz Inc.

快速回复 返回顶部 返回列表