百度云资源论坛

 找回密码
 立即注册
搜索

异形魔怪:尖叫岛 Tremors.Shrieker.Island.2020.1080p.BluRay.x264.DTS-HD....

[复制链接]
百度云资源 发表于 2020-10-15 10:01:57 | 显示全部楼层 |阅读模式
帖子完整标题:异形魔怪:尖叫岛 Tremors.Shrieker.Island.2020.1080p.BluRay.x264.DTS-HD.MA.5.1-MT 16.64GB




◎译  名 异形魔怪:尖叫岛
◎片  名 Tremors: Shrieker Island
◎年  代 2020
◎产  地 美国
◎类  别 动作 / 科幻 / 惊悚
◎语  言 英语
◎上映日期 2020-10-20(美国)
◎IMDb评分  5.6/10 from 205 users

◎标  签 美国 | 美国电影 | 惊悚 | 恐怖 | 怪兽 | 瞎眼物 | 电影 | 搞笑

◎简  介

  Graboids are illegally taken to a new island resort by a rich playboy as a dangerous form of trophy hunting, and Burt Gummer steps up to save the day.
Video
ID                                       : 1
Format                                   : AVC
Format/Info                              : Advanced Video Codec
Format settings                          : CABAC / 4 Ref Frames
Format settings, CABAC                   : Yes
Format settings, Reference frames        : 4 frames
Codec ID                                 : V_MPEG4/ISO/AVC
Duration                                 : 1 h 42 min
Bit rate                                 : 19.2 Mb/s
Width                                    : 1 920 pixels
Height                                   : 960 pixels
Display aspect ratio                     : 2.000
Frame rate mode                          : Constant
Frame rate                               : 23.976 (24000/1001/189150) FPS
Color space                              : YUV
Chroma subsampling                       : 4:2:0
Bit depth                                : 8 bits
Scan type                                : Progressive
Bits/(Pixel*Frame)                       : 0.434
Stream size                              : 13.7 GiB (82%)
Writing library                          : x264 core 157 r2938 2b00a84 umh / subme=10 / psy=1 / psy_rd=1.05:0.00 / mixed_ref=1 / me_range=32 / chroma_me=1 / trellis=2 / 8x8dct=1 / cqm=0 / deadzone=21,11 / fast_pskip=0 / chroma_qp_offset=-2 / threads=12 / lookahead_threads=2 / sliced_threads=0 / nr=0 / decimate=0 / interlaced=0 / bluray_compat=0 / constrained_intra=0 / bframes=8 / b_pyramid=2 / b_adapt=2 / b_bias=0 / direct=3 / weightb=1 / open_gop=0 / weightp=2 / keyint=250 / keyint_min=24 / scenecut=40 / intra_refresh=0 / rc_lookahead=250 / rc=crf / mbtree=0 / crf=16.8 / qcomp=0.60 / qpmin=0 / qpmax=69 / qpstep=4 / vbv_maxrate=62500 / vbv_bufsize=78125 / crf_max=0.0 / nal_hrd=none / filler=0 / ip_ratio=1.30 / pb_ratio=1.20 / aq=3:0.80
Language                                 : English
Default                                  : Yes
Forced                                   : No
Color range                              : Limited
Color primaries                          : BT.709
Matrix coefficients                      : BT.709

Audio
ID                                       : 2
Format                                   : DTS XLL
Format/Info                              : Digital Theater Systems
Commercial name                          : DTS-HD Master Audio
Codec ID                                 : A_DTS
Duration                                 : 1 h 42 min
Bit rate mode                            : Variable
Bit rate                                 : 4 087 kb/s
Channel(s)                               : 6 channels
Channel layout                           : C L R Ls Rs LFE
Sampling rate                            : 48.0 kHz
Frame rate                               : 93.750 FPS (512 SPF)
Bit depth                                : 24 bits
Compression mode                         : Lossless
Stream size                              : 2.92 GiB (18%)
Language                                 : English
Default                                  : Yes
Forced                                   : No

Text #1
ID                                       : 3
Format                                   : UTF-8
Codec ID                                 : S_TEXT/UTF8
Codec ID/Info                            : UTF-8 Plain Text
Duration                                 : 1 h 31 min
Bit rate                                 : 50 b/s
Count of elements                        : 1027
Stream size                              : 33.9 KiB (0%)
Title                                    : SRT
Language                                 : English
Default                                  : Yes
Forced                                   : No

Text #2
ID                                       : 4
Format                                   : PGS
Muxing mode                              : zlib
Codec ID                                 : S_HDMV/PGS
Codec ID/Info                            : Picture based subtitle format used on BDs/HD-DVDs
Duration                                 : 1 h 34 min
Bit rate                                 : 38.9 kb/s
Count of elements                        : 2619
Stream size                              : 26.2 MiB (0%)
Language                                 : English
Default                                  : No
Forced                                   : No

Menu
00:00:00.000                             : en:Chapter 01
00:05:25.700                             : en:Chapter 02
00:09:35.825                             : en:Chapter 03
00:15:41.482                             : en:Chapter 04
00:20:10.793                             : en:Chapter 05
00:28:44.806                             : en:Chapter 06
00:32:48.800                             : en:Chapter 07
00:36:44.786                             : en:Chapter 08
00:40:42.523                             : en:Chapter 09
00:45:20.968                             : en:Chapter 10
00:50:04.460                             : en:Chapter 11
00:55:01.590                             : en:Chapter 12
01:00:17.489                             : en:Chapter 13
01:05:59.038                             : en:Chapter 14
01:10:24.554                             : en:Chapter 15
01:14:31.217                             : en:Chapter 16
01:22:49.173                             : en:Chapter 17
01:26:39.694                             : en:Chapter 18
01:29:45.755                             : en:Chapter 19
01:37:07.655                             : en:Chapter 20






0b32a79ed6c8329a191d1cf874961e93.zip (84.66 KB, 下载次数: 0)

回复

使用道具 举报

小黑屋|百度云资源论坛 |网站地图

本网站所有资源来自网络,如无意中侵犯了您的权益,请发邮件至 [email protected],立即清除相关链接

GMT+8, 2020-10-28 02:37 , Processed in 0.111084 second(s), 23 queries .

Powered by Discuz! X3.2

© 2001-2013 Comsenz Inc.

快速回复 返回顶部 返回列表