百度云资源论坛

 找回密码
 立即注册
搜索

黑色报告书 The.Black.Report.1963.720p.BluRay.x264-BiPOLAR 3.45GB

[复制链接]
百度云资源 发表于 2020-10-15 09:21:34 | 显示全部楼层 |阅读模式
帖子完整标题:黑色报告书 The.Black.Report.1963.720p.BluRay.x264-BiPOLAR 3.45GB




◎译  名 黑色报告书/Kuro no h?kokush?
◎片  名 黒の報告書
◎年  代 1963
◎产  地 日本
◎类  别 悬疑
◎语  言 日语
◎上映日期 1963-01-13
◎IMDb评分  6.9/10 from 50 users
◎片  长 94分钟
◎导  演 增村保造 Yasuzo Masumura
◎编  剧 增村保造 Yasuzo Masumura
◎主  演 小泽荣太郎 Eitar? Ozawa
       叶顺子 Junko Kano
       神山繁 Shigeru K?yama
       高松英郎 Hideo Takamatsu
       宇津井健 Ken Utsui

◎标  签 日本 | 増村保造 | 日本电影 | 1960s | 犯罪 | 悬疑 | 1960 | 已存

◎简  介

  佐賀潜の江戸川乱歩賞受賞作『華やかな死体』の映画化。若い検事が食品会社社長殺害事件を担当し、悪徳弁護士や集団偽証を向こうにまわし、正義と真実を求めて苦闘する。
Video
ID                                       : 1
Format                                   : AVC
Format/Info                              : Advanced Video Codec
Format settings                          : CABAC / 11 Ref Frames
Format settings, CABAC                   : Yes
Format settings, Reference frames        : 11 frames
Codec ID                                 : V_MPEG4/ISO/AVC
Duration                                 : 1 h 32 min
Bit rate                                 : 4 733 kb/s
Width                                    : 1 280 pixels
Height                                   : 546 pixels
Display aspect ratio                     : 2.35:1
Frame rate mode                          : Constant
Frame rate                               : 23.976 (24000/1001/189150) FPS
Color space                              : YUV
Chroma subsampling                       : 4:2:0
Bit depth                                : 8 bits
Scan type                                : Progressive
Bits/(Pixel*Frame)                       : 0.282
Stream size                              : 3.05 GiB (88%)
Writing library                          : x264 core 161 r3018 db0d417
Encoding settings                        : cabac=1 / ref=11 / deblock=1:-3:-3 / analyse=0x3:0x133 / me=umh / subme=10 / psy=1 / psy_rd=1.00:0.15 / mixed_ref=1 / me_range=24 / chroma_me=1 / trellis=2 / 8x8dct=1 / cqm=0 / deadzone=21,11 / fast_pskip=1 / chroma_qp_offset=-3 / threads=17 / lookahead_threads=2 / sliced_threads=0 / nr=0 / decimate=1 / interlaced=0 / bluray_compat=0 / constrained_intra=0 / bframes=8 / b_pyramid=2 / b_adapt=2 / b_bias=0 / direct=3 / weightb=1 / open_gop=0 / weightp=2 / keyint=250 / keyint_min=23 / scenecut=40 / intra_refresh=0 / rc_lookahead=60 / rc=crf / mbtree=1 / crf=17.0 / qcomp=0.60 / qpmin=0 / qpmax=69 / qpstep=4 / ip_ratio=1.40 / aq=3:0.50
Language                                 : English
Default                                  : Yes
Forced                                   : No
Color range                              : Limited
Matrix coefficients                      : BT.709

Audio
ID                                       : 2
Format                                   : FLAC
Format/Info                              : Free Lossless Audio Codec
Codec ID                                 : A_FLAC
Duration                                 : 1 h 32 min
Bit rate mode                            : Variable
Bit rate                                 : 607 kb/s
Channel(s)                               : 1 channel
Channel layout                           : C
Sampling rate                            : 48.0 kHz
Frame rate                               : 11.719 FPS (4096 SPF)
Bit depth                                : 24 bits
Compression mode                         : Lossless
Stream size                              : 400 MiB (11%)
Writing library                          : libFLAC 1.2.1 (UTC 2007-09-17)
Language                                 : Japanese
Default                                  : Yes
Forced                                   : No

Text #1
ID                                       : 3
Format                                   : UTF-8
Codec ID                                 : S_TEXT/UTF8
Codec ID/Info                            : UTF-8 Plain Text
Duration                                 : 1 h 32 min
Bit rate                                 : 65 b/s
Count of elements                        : 1238
Stream size                              : 44.1 KiB (0%)
Title                                    : English
Language                                 : English
Default                                  : Yes
Forced                                   : Yes

Text #2
ID                                       : 4
Format                                   : PGS
Muxing mode                              : zlib
Codec ID                                 : S_HDMV/PGS
Codec ID/Info                            : Picture based subtitle format used on BDs/HD-DVDs
Duration                                 : 1 h 32 min
Bit rate                                 : 10.8 kb/s
Count of elements                        : 2476
Stream size                              : 7.09 MiB (0%)
Title                                    : English
Language                                 : English
Default                                  : No
Forced                                   : No

Menu
00:00:00.000                             : en:00:00:00.000
00:07:36.706                             : en:00:07:36.706
00:15:28.594                             : en:00:15:28.594
00:22:32.142                             : en:00:22:32.142
00:31:04.362                             : en:00:31:04.362
00:38:05.116                             : en:00:38:05.116
00:43:20.848                             : en:00:43:20.848
00:52:34.818                             : en:00:52:34.818
01:00:49.771                             : en:01:00:49.771
01:11:55.311                             : en:01:11:55.311
01:16:53.150                             : en:01:16:53.150
01:23:53.320                             : en:01:23:53.320




                                                                                                                                                                                                        


18e13e2ea7badc0127bfc9a7cc4736a0.zip (35.98 KB, 下载次数: 0)

回复

使用道具 举报

小黑屋|百度云资源论坛 |网站地图

本网站所有资源来自网络,如无意中侵犯了您的权益,请发邮件至 [email protected],立即清除相关链接

GMT+8, 2020-10-30 02:51 , Processed in 0.112873 second(s), 23 queries .

Powered by Discuz! X3.2

© 2001-2013 Comsenz Inc.

快速回复 返回顶部 返回列表