百度云资源论坛

 找回密码
 立即注册
搜索

独自一人/孤独 Alone.2020.1080p.BluRay.x264.DTS-MT 8.55GB

[复制链接]
百度云电影 发表于 2020-10-14 09:44:30 | 显示全部楼层 |阅读模式
帖子完整标题:独自一人/孤独 Alone.2020.1080p.BluRay.x264.DTS-MT 8.55GB




◎译  名 独自一人/孤独
◎片  名 Alone
◎年  代 2020
◎产  地 美国
◎类  别 惊悚
◎语  言 英语
◎上映日期 2020-10-16(美国)
◎导  演 约翰尼·马丁 Johnny Martin
◎编  剧 马特·奈勒 Matt Naylor
◎主  演 泰勒·珀西 Tyler Posey
       唐纳德·萨瑟兰 Donald Sutherland
       罗伯特·理查德 Robert Ri'chard
       约翰·波西 John Posey
       埃里克·艾特巴里 Eric Etebari
       Margarita Reyes
       Greg Fitzpatrick
       Maya Karin

◎标  签 行尸 | 惊悚 | 泰勒·珀西 | 唐纳德·萨瑟兰 | 美国电影

◎简  介

  唐纳德·萨瑟兰、泰勒·珀西将主演惊悚片[独自一人](Alone,暂译)。本片由约翰尼·马丁执导,Matt Naylor撰写剧本。故事讲述艾丹(珀西饰)把自己关在公寓里以躲避占领楼群的尖叫者。随着世界陷入混乱,艾丹在他的院子里发现一个被困的女孩(Summer Spiro饰)。二人在为求生找出路的过程中,发展出了一段爱情。
Video
ID                                       : 1
Format                                   : AVC
Format/Info                              : Advanced Video Codec
Format settings                          : CABAC / 5 Ref Frames
Format settings, CABAC                   : Yes
Format settings, Reference frames        : 5 frames
Codec ID                                 : V_MPEG4/ISO/AVC
Duration                                 : 1 h 32 min
Bit rate                                 : 11.8 Mb/s
Width                                    : 1 920 pixels
Height                                   : 800 pixels
Display aspect ratio                     : 2.40:1
Frame rate mode                          : Constant
Frame rate                               : 23.976 (24000/1001/189150) FPS
Color space                              : YUV
Chroma subsampling                       : 4:2:0
Bit depth                                : 8 bits
Scan type                                : Progressive
Bits/(Pixel*Frame)                       : 0.319
Stream size                              : 7.58 GiB (89%)
Writing library                          : x264 core 157 r2938 2b00a84 1 Mod
Encoding settings                        : cabac=1 / ref=5 / deblock=1:-3:-3 / analyse=0x3:0x133 / me=umh / subme=10 / psy=1 / psy_rd=1.05:0.00 / mixed_ref=1 / me_range=32 / chroma_me=1 / trellis=2 / 8x8dct=1 / cqm=0 / deadzone=21,11 / fast_pskip=0 / chroma_qp_offset=-2 / threads=12 / lookahead_threads=2 / sliced_threads=0 / nr=0 / decimate=0 / interlaced=0 / bluray_compat=0 / constrained_intra=0 / bframes=8 / b_pyramid=2 / b_adapt=2 / b_bias=0 / direct=3 / weightb=1 / open_gop=0 / weightp=2 / keyint=250 / keyint_min=24 / scenecut=40 / intra_refresh=0 / rc_lookahead=250 / rc=crf / mbtree=0 / crf=16.8 / qcomp=0.60 / qpmin=0 / qpmax=69 / qpstep=4 / vbv_maxrate=62500 / vbv_bufsize=78125 / crf_max=0.0 / nal_hrd=none / filler=0 / ip_ratio=1.30 / pb_ratio=1.20 / aq=3:0.80
Language                                 : English
Default                                  : Yes
Forced                                   : No
Color range                              : Limited
Color primaries                          : BT.709
Matrix coefficients                      : BT.709

Audio
ID                                       : 2
Format                                   : DTS
Format/Info                              : Digital Theater Systems
Codec ID                                 : A_DTS
Duration                                 : 1 h 32 min
Bit rate mode                            : Constant
Bit rate                                 : 1 509 kb/s
Channel(s)                               : 6 channels
Channel layout                           : C L R Ls Rs LFE
Sampling rate                            : 48.0 kHz
Frame rate                               : 93.750 FPS (512 SPF)
Bit depth                                : 24 bits
Compression mode                         : Lossy
Stream size                              : 996 MiB (11%)
Language                                 : English
Default                                  : Yes
Forced                                   : No

Text
ID                                       : 3
Format                                   : UTF-8
Codec ID                                 : S_TEXT/UTF8
Codec ID/Info                            : UTF-8 Plain Text
Duration                                 : 1 h 30 min
Bit rate                                 : 35 b/s
Count of elements                        : 890
Stream size                              : 23.7 KiB (0%)
Title                                    : SRT
Language                                 : English
Default                                  : Yes
Forced                                   : No

Menu
00:00:00.000                             : en:Chapter 01
00:02:33.403                             : en:Chapter 02
00:08:22.502                             : en:Chapter 03
00:13:04.784                             : en:Chapter 04
00:18:23.894                             : en:Chapter 05
00:25:39.538                             : en:Chapter 06
00:32:36.621                             : en:Chapter 07
00:37:45.430                             : en:Chapter 08
00:39:35.790                             : en:Chapter 09
00:44:28.457                             : en:Chapter 10
00:51:29.253                             : en:Chapter 11
00:58:03.855                             : en:Chapter 12
01:06:33.156                             : en:Chapter 13
01:16:36.133                             : en:Chapter 14
01:21:30.344                             : en:Chapter 15
01:25:43.930                             : en:Chapter 16





e82913db970ff9a92be987cda2b82d91.zip (43.38 KB, 下载次数: 0)

回复

使用道具 举报

小黑屋|百度云资源论坛 |网站地图

本网站所有资源来自网络,如无意中侵犯了您的权益,请发邮件至 [email protected],立即清除相关链接

GMT+8, 2020-10-28 02:47 , Processed in 0.122197 second(s), 23 queries .

Powered by Discuz! X3.2

© 2001-2013 Comsenz Inc.

快速回复 返回顶部 返回列表