百度云资源论坛

 找回密码
 立即注册
搜索

精灵宝可梦:超梦的逆袭·进化 Pokemon.Mewtwo.Strikes.Back.Evolution.... ...

[复制链接]
百度云资源 发表于 2020-10-14 09:03:20 | 显示全部楼层 |阅读模式
帖子完整标题:精灵宝可梦:超梦的逆袭·进化 Pokemon.Mewtwo.Strikes.Back.Evolution.2019.720p.BluRay.x264-iFPD 4.14GB




◎译  名 精灵宝可梦:超梦的逆袭·进化/Pokémon: Mewtwo Strikes Back - Evolution/ミュウツーの逆襲 EVOLUTION
◎片  名 劇場版 ポケットモンスター ミュウツーの逆襲 EVOLUTION
◎年  代 2019
◎产  地 日本
◎类  别 动作 / 动画 / 家庭
◎语  言 日语
◎上映日期 2019-07-12(日本)
◎IMDb评分  5.7/10 from 4048 users
◎片  长 98分钟
◎导  演 矢岛哲生 Tetsuo Yajima / 汤山邦彦 Kunihiko Yuyama
◎编  剧 首藤刚志 Takeshi Shudo / 田尻智 Satoshi Tajiri
◎主  演 松本梨香 Rica Matsumoto
       大谷育江 Ikue Ootani
       市村正亲 Masachika Ichimura
       饭冢雅弓 Mayumi Iizuka
       兴梠里美 Satomi Koorogi
       上田祐司 Y?ji Ueda
       林原惠美 Megumi Hayashibara
       三木真一郎 Shinichir? Miki
       犬山犬子 Inuko Inuyama
       爱河里花子 Rikako Aikawa
       高木涉 Wataru Takagi
       山寺宏一 K?ichi Yamadera
       石冢运升 Unsh? Ishizuka
       张琦 Qi Zhang

◎标  签 精灵宝可梦 | 动画 | 日本 | 剧场版 | 宠物小精灵 | 2019 | Pokemon | 日本动画

◎简  介

  《精灵宝可梦:超梦的逆袭·进化》的故事讲述的是一群疯狂的科学家,为了自己的梦想,研制出一套只需要少许基因便可复制出宝可梦的机器,并把发掘到的世界最强宝可梦复制成了拥有比梦幻更强能力的超梦。但当超梦醒来后,却因无法找寻到真正的自我而暴走。火箭队的老大出现在超梦的面前,用花言巧语把迷失自我的超梦拉拢过来为自己办事,但没过多少时间,超梦再次对自我感到迷茫。超梦回到那个复制它的岛屿,决定开始它的复仇之战。
Video
ID                                       : 1
Format                                   : AVC
Format/Info                              : Advanced Video Codec
Format settings                          : CABAC / 8 Ref Frames
Format settings, CABAC                   : Yes
Format settings, Reference frames        : 8 frames
Codec ID                                 : V_MPEG4/ISO/AVC
Duration                                 : 1 h 36 min
Bit rate                                 : 3 978 kb/s
Width                                    : 1 280 pixels
Height                                   : 720 pixels
Display aspect ratio                     : 16:9
Frame rate mode                          : Constant
Frame rate                               : 23.976 (24000/1001/189150) FPS
Color space                              : YUV
Chroma subsampling                       : 4:2:0
Bit depth                                : 8 bits
Scan type                                : Progressive
Bits/(Pixel*Frame)                       : 0.180
Stream size                              : 2.68 GiB (65%)
Writing library                          : x264 core 161 r3018 db0d417
Encoding settings                        : cabac=1 / ref=8 / deblock=1:1:1 / analyse=0x3:0x133 / me=umh / subme=9 / psy=1 / psy_rd=0.70:0.00 / mixed_ref=1 / me_range=16 / chroma_me=1 / trellis=2 / 8x8dct=1 / cqm=0 / deadzone=21,11 / fast_pskip=0 / chroma_qp_offset=-2 / threads=22 / lookahead_threads=1 / sliced_threads=0 / nr=0 / decimate=1 / interlaced=0 / bluray_compat=0 / constrained_intra=0 / bframes=3 / b_pyramid=2 / b_adapt=2 / b_bias=0 / direct=3 / weightb=1 / open_gop=0 / weightp=2 / keyint=250 / keyint_min=23 / scenecut=40 / intra_refresh=0 / rc_lookahead=60 / rc=crf / mbtree=1 / crf=17.0 / qcomp=0.60 / qpmin=0 / qpmax=69 / qpstep=4 / ip_ratio=1.40 / aq=3:1.00
Default                                  : Yes
Forced                                   : No
Color range                              : Limited
Color primaries                          : BT.709
Transfer characteristics                 : BT.709
Matrix coefficients                      : BT.709

Audio
ID                                       : 2
Format                                   : DTS XLL
Format/Info                              : Digital Theater Systems
Commercial name                          : DTS-HD Master Audio
Codec ID                                 : A_DTS
Duration                                 : 1 h 36 min
Bit rate mode                            : Variable
Bit rate                                 : 2 168 kb/s
Channel(s)                               : 6 channels
Channel layout                           : C L R Ls Rs LFE
Sampling rate                            : 48.0 kHz
Frame rate                               : 93.750 FPS (512 SPF)
Bit depth                                : 16 bits
Compression mode                         : Lossless
Stream size                              : 1.46 GiB (35%)
Language                                 : English
Default                                  : Yes
Forced                                   : No

Menu
00:00:00.000                             : en:00:00:00.000
00:12:12.315                             : en:00:12:12.315
00:18:50.963                             : en:00:18:50.963
00:30:19.651                             : en:00:30:19.651
00:34:23.520                             : en:00:34:23.520
00:41:24.190                             : en:00:41:24.190
00:46:03.928                             : en:00:46:03.928
00:53:40.843                             : en:00:53:40.843
01:00:24.704                             : en:01:00:24.704
01:11:55.811                             : en:01:11:55.811
01:18:35.044                             : en:01:18:35.044
01:31:11.007                             : en:01:31:11.007




                                                                                                                                                                                                        


3ce68d983c273e6537351984c3294141.zip (42.11 KB, 下载次数: 0)

回复

使用道具 举报

小黑屋|百度云资源论坛 |网站地图

本网站所有资源来自网络,如无意中侵犯了您的权益,请发邮件至 [email protected],立即清除相关链接

GMT+8, 2020-10-30 03:25 , Processed in 0.119312 second(s), 23 queries .

Powered by Discuz! X3.2

© 2001-2013 Comsenz Inc.

快速回复 返回顶部 返回列表