百度云资源论坛

 找回密码
 立即注册
搜索

所罗门国王传奇 The.Legend.Of.King.Solomon.2017.1080p.BluRay.x264-GETiT...

[复制链接]
百度云资源 发表于 2020-10-13 09:31:20 | 显示全部楼层 |阅读模式
帖子完整标题:所罗门国王传奇 The.Legend.Of.King.Solomon.2017.1080p.BluRay.x264-GETiT 4.42GB




◎译  名 所罗门国王传奇
◎片  名 The Legend of King Solomon
◎年  代 2018
◎产  地 匈牙利
◎类  别 动画
◎语  言 英语
◎上映日期 2017-09-28(匈牙利)
◎IMDb评分  4.4/10 from 132 users
◎片  长 80分钟
◎导  演 艾伯特·翰南·卡明斯基 Albert Hanan Kaminski
◎编  剧 艾伯特·翰南·卡明斯基 Albert Hanan Kaminski
◎主  演 奥利·普费弗 Ori Pfeffer
       Eden Har'el
       Oded Menashe

◎标  签 电影 | 匈牙利 | 动画

◎简  介

  暂无相关剧情介绍
Video
ID                                       : 1
Format                                   : AVC
Format settings                          : CABAC / 4 Ref Frames
Format settings, CABAC                   : Yes
Format settings, Reference frames        : 4 frames
Codec ID                                 : V_MPEG4/ISO/AVC
Duration                                 : 1 h 19 min
Bit rate                                 : 4 338 kb/s
Width                                    : 1 920 pixels
Height                                   : 1 080 pixels
Display aspect ratio                     : 16:9
Frame rate mode                          : Constant
Frame rate                               : 24.000 FPS
Color space                              : YUV
Chroma subsampling                       : 4:2:0
Bit depth                                : 8 bits
Scan type                                : Progressive
Bits/(Pixel*Frame)                       : 0.087
Stream size                              : 2.42 GiB (55%)
Writing library                          : x264 core 161 r3018 db0d417
Encoding settings                        : cabac=1 / ref=4 / deblock=1:-3:-3 / analyse=0x3:0x133 / me=umh / subme=9 / psy=1 / psy_rd=1.00:0.00 / mixed_ref=1 / me_range=16 / chroma_me=1 / trellis=2 / 8x8dct=1 / cqm=0 / deadzone=21,11 / fast_pskip=1 / chroma_qp_offset=-2 / threads=18 / lookahead_threads=1 / sliced_threads=0 / nr=0 / decimate=1 / interlaced=0 / bluray_compat=0 / constrained_intra=0 / bframes=3 / b_pyramid=2 / b_adapt=2 / b_bias=0 / direct=3 / weightb=1 / open_gop=0 / weightp=2 / keyint=250 / keyint_min=24 / scenecut=40 / intra_refresh=0 / rc_lookahead=60 / rc=crf / mbtree=1 / crf=17.0 / qcomp=0.60 / qpmin=0 / qpmax=69 / qpstep=4 / ip_ratio=1.40 / aq=3:0.80
Language                                 : English
Default                                  : Yes
Forced                                   : No
Color range                              : Limited
Matrix coefficients                      : BT.709

Audio
ID                                       : 2
Format                                   : DTS XLL
Format/Info                              : Digital Theater Systems
Commercial name                          : DTS-HD Master Audio
Codec ID                                 : A_DTS
Duration                                 : 1 h 19 min
Bit rate mode                            : Variable
Bit rate                                 : 3 600 kb/s
Channel(s)                               : 6 channels
Channel layout                           : C L R Ls Rs LFE
Sampling rate                            : 48.0 kHz
Frame rate                               : 93.750 FPS (512 SPF)
Bit depth                                : 24 bits
Compression mode                         : Lossless
Stream size                              : 2.01 GiB (45%)
Title                                    : dtshd
Language                                 : English
Default                                  : Yes
Forced                                   : No

Menu
00:00:00.000                             : en:00:00:00.000
00:09:36.000                             : en:00:09:36.000
00:17:55.000                             : en:00:17:55.000
00:27:44.000                             : en:00:27:44.000
00:38:06.000                             : en:00:38:06.000
00:47:05.000                             : en:00:47:05.000
00:57:34.000                             : en:00:57:34.000
01:07:44.000                             : en:01:07:44.000
01:16:58.000                             : en:01:16:58.000




                                                                                                                                                                                                        
                                                                                                                                                                                                                                                                                                                                                                                                                                                                                    
8482f3b1c9768c6ac46cf19778f59648.zip (44.97 KB, 下载次数: 0)

回复

使用道具 举报

小黑屋|百度云资源论坛 |网站地图

本网站所有资源来自网络,如无意中侵犯了您的权益,请发邮件至 [email protected],立即清除相关链接

GMT+8, 2020-10-28 01:10 , Processed in 0.119782 second(s), 23 queries .

Powered by Discuz! X3.2

© 2001-2013 Comsenz Inc.

快速回复 返回顶部 返回列表