百度云资源论坛

 找回密码
 立即注册
搜索

亡灵诅咒 Curse.Of.The.Blind.Dead.2020.1080p.BluRay.x264-GETiT 8.07GB

[复制链接]
百度云资源 发表于 2020-10-12 12:13:59 | 显示全部楼层 |阅读模式
帖子完整标题:亡灵诅咒 Curse.Of.The.Blind.Dead.2020.1080p.BluRay.x264-GETiT 8.07GB




◎译  名 亡灵诅咒
◎片  名 Curse of the Blind Dead
◎年  代 2020
◎产  地 意大利
◎类  别 恐怖
◎语  言 英语
◎上映日期 2020-07-24(德国)
◎IMDb评分  3.3/10 from 93 users
◎片  长 87分钟
◎编  剧 Gustavo Adolfo Bécquer / 阿曼多·德·奥索里奥 Amando de Ossorio

◎标  签 恐怖 | 惊悚 | 灵异 | 意大利电影 | 3M稀影基地论坛 | 3M稀影基地 | 1

◎简  介

  In the Thirteen century, a group of Satan worshipers, the Knight Templars, is captured during a ritual and brutally murdered by the locals. Just before the execution, the Knights swear to return from their graves to haunt the village and the nearby forest. Centuries later, in a post-apocalyptic future, a man and his daughter try to survive against both the Undead Knights and a sect commanded by a mad preacher.
Video
ID                                       : 1
Format                                   : AVC
Format/Info                              : Advanced Video Codec
Format settings                          : CABAC / 5 Ref Frames
Format settings, CABAC                   : Yes
Format settings, Reference frames        : 5 frames
Codec ID                                 : V_MPEG4/ISO/AVC
Duration                                 : 1 h 27 min
Bit rate                                 : 11.3 Mb/s
Width                                    : 1 920 pixels
Height                                   : 800 pixels
Display aspect ratio                     : 2.40:1
Frame rate mode                          : Constant
Frame rate                               : 24.000 FPS
Color space                              : YUV
Chroma subsampling                       : 4:2:0
Bit depth                                : 8 bits
Scan type                                : Progressive
Bits/(Pixel*Frame)                       : 0.305
Stream size                              : 6.85 GiB (85%)
Writing library                          : x264 core 161 r3018 db0d417
Encoding settings                        : cabac=1 / ref=5 / deblock=1:-3:-3 / analyse=0x3:0x133 / me=umh / subme=9 / psy=1 / psy_rd=1.00:0.00 / mixed_ref=1 / me_range=16 / chroma_me=1 / trellis=2 / 8x8dct=1 / cqm=0 / deadzone=21,11 / fast_pskip=1 / chroma_qp_offset=-2 / threads=18 / lookahead_threads=1 / sliced_threads=0 / nr=0 / decimate=1 / interlaced=0 / bluray_compat=0 / constrained_intra=0 / bframes=3 / b_pyramid=2 / b_adapt=2 / b_bias=0 / direct=3 / weightb=1 / open_gop=0 / weightp=2 / keyint=250 / keyint_min=24 / scenecut=40 / intra_refresh=0 / rc_lookahead=60 / rc=crf / mbtree=1 / crf=19.0 / qcomp=0.60 / qpmin=0 / qpmax=69 / qpstep=4 / ip_ratio=1.40 / aq=3:0.80
Language                                 : English
Default                                  : Yes
Forced                                   : No
Color range                              : Limited
Matrix coefficients                      : BT.709

Audio
ID                                       : 2
Format                                   : DTS XLL
Format/Info                              : Digital Theater Systems
Commercial name                          : DTS-HD Master Audio
Codec ID                                 : A_DTS
Duration                                 : 1 h 27 min
Bit rate mode                            : Variable
Bit rate                                 : 2 003 kb/s
Channel(s)                               : 6 channels
Channel layout                           : C L R Ls Rs LFE
Sampling rate                            : 48.0 kHz
Frame rate                               : 93.750 FPS (512 SPF)
Bit depth                                : 16 bits
Compression mode                         : Lossless
Stream size                              : 1.22 GiB (15%)
Title                                    : dtshd
Language                                 : English
Default                                  : Yes
Forced                                   : No

Menu
00:00:00.000                             : en:00:00:00.000
00:12:24.000                             : en:00:12:24.000
00:26:15.750                             : en:00:26:15.750
00:39:51.292                             : en:00:39:51.292
00:45:30.208                             : en:00:45:30.208
00:56:05.625                             : en:00:56:05.625
01:04:17.292                             : en:01:04:17.292
01:19:05.542                             : en:01:19:05.542




                                                                                                                                                                                                        
                                                                                                                                                                                                                                                                                                                                                                                                                                                                                         
39a93ad85945b885e6b3e98ad4d48800.zip (41.86 KB, 下载次数: 0)

回复

使用道具 举报

小黑屋|百度云资源论坛 |网站地图

本网站所有资源来自网络,如无意中侵犯了您的权益,请发邮件至 [email protected],立即清除相关链接

GMT+8, 2020-10-28 01:55 , Processed in 0.111992 second(s), 23 queries .

Powered by Discuz! X3.2

© 2001-2013 Comsenz Inc.

快速回复 返回顶部 返回列表