百度云资源论坛

 找回密码
 立即注册
搜索

抢滩总攻击 Beach.Red.1967.720p.BluRay.x264-SURCODE 7.59GB

[复制链接]
百度云资源 发表于 2020-10-12 11:33:15 | 显示全部楼层 |阅读模式
帖子完整标题:抢滩总攻击 Beach.Red.1967.720p.BluRay.x264-SURCODE 7.59GB




◎译  名 抢滩总攻击
◎片  名 Beach Red
◎年  代 1967
◎产  地 美国
◎类  别 剧情 / 战争
◎语  言 英语,日语
◎上映日期 1967-08-03
◎片  长 105 分钟
◎导  演 柯纳·王尔德 Cornel Wilde
◎编  剧 克林特·约翰斯顿 Clint Johnston / 柯纳·王尔德 Cornel Wilde / 唐·彼得斯 Don Peters / Peter Bowman
◎主  演 柯纳·王尔德 Cornel Wilde
       雷普·汤恩 Rip Torn
       伯尔·德本宁 Burr DeBenning
       Fred Galang
       琼·华莱士 Jean Wallace
       石本戴尔 Dale Ishimoto
       Bill Dunbar
       Gene Blakely
       杰米·桑切兹 Jaime Sánchez
       Michael Parsons

◎标  签 抢滩总攻击 | 比利·怀尔德 | 做作的片子 | 美国 | 战争 | 太平洋

◎简  介

  讲述了美军在太平洋战场上英勇痛扁日本军队的战事。

◎获奖情况

  第40届奥斯卡金像奖 ?(1968)
  最佳剪辑(提名) 弗兰克·凯勒
Video
ID                                       : 1
Format                                   : AVC
Format/Info                              : Advanced Video Codec
Format settings                          : CABAC / 8 Ref Frames
Format settings, CABAC                   : Yes
Format settings, Reference frames        : 8 frames
Codec ID                                 : V_MPEG4/ISO/AVC
Duration                                 : 1 h 43 min
Bit rate                                 : 9 685 kb/s
Width                                    : 1 280 pixels
Height                                   : 692 pixels
Display aspect ratio                     : 1.85:1
Frame rate mode                          : Constant
Frame rate                               : 23.976 (24000/1001/189150) FPS
Color space                              : YUV
Chroma subsampling                       : 4:2:0
Bit depth                                : 8 bits
Scan type                                : Progressive
Bits/(Pixel*Frame)                       : 0.456
Stream size                              : 7.01 GiB (92%)
Writing library                          : x264 core 161 r3018 db0d417
Encoding settings                        : cabac=1 / ref=8 / deblock=1:-3:-3 / analyse=0x3:0x133 / me=umh / subme=9 / psy=1 / psy_rd=1.00:0.00 / mixed_ref=1 / me_range=16 / chroma_me=1 / trellis=2 / 8x8dct=1 / cqm=0 / deadzone=21,11 / fast_pskip=0 / chroma_qp_offset=-2 / threads=22 / lookahead_threads=1 / sliced_threads=0 / nr=0 / decimate=1 / interlaced=0 / bluray_compat=0 / constrained_intra=0 / bframes=3 / b_pyramid=2 / b_adapt=2 / b_bias=0 / direct=3 / weightb=1 / open_gop=0 / weightp=2 / keyint=250 / keyint_min=23 / scenecut=40 / intra_refresh=0 / rc_lookahead=60 / rc=crf / mbtree=1 / crf=17.4 / qcomp=0.60 / qpmin=0 / qpmax=69 / qpstep=4 / ip_ratio=1.40 / aq=1:1.00
Language                                 : English
Default                                  : Yes
Forced                                   : No

Audio
ID                                       : 2
Format                                   : FLAC
Format/Info                              : Free Lossless Audio Codec
Codec ID                                 : A_FLAC
Duration                                 : 1 h 43 min
Bit rate mode                            : Variable
Bit rate                                 : 793 kb/s
Channel(s)                               : 2 channels
Channel layout                           : L R
Sampling rate                            : 48.0 kHz
Frame rate                               : 11.719 FPS (4096 SPF)
Bit depth                                : 24 bits
Compression mode                         : Lossless
Stream size                              : 588 MiB (8%)
Writing library                          : libFLAC 1.3.2 (UTC 2017-01-01)
Language                                 : English
Default                                  : Yes
Forced                                   : No

Text #1
ID                                       : 3
Format                                   : PGS
Muxing mode                              : zlib
Codec ID                                 : S_HDMV/PGS
Codec ID/Info                            : Picture based subtitle format used on BDs/HD-DVDs
Duration                                 : 1 h 42 min
Bit rate                                 : 12.0 kb/s
Count of elements                        : 1585
Stream size                              : 8.73 MiB (0%)
Language                                 : English
Default                                  : No
Forced                                   : No

Text #2
ID                                       : 4
Format                                   : PGS
Muxing mode                              : zlib
Codec ID                                 : S_HDMV/PGS
Codec ID/Info                            : Picture based subtitle format used on BDs/HD-DVDs
Duration                                 : 1 h 42 min
Bit rate                                 : 13.9 kb/s
Count of elements                        : 1585
Stream size                              : 10.2 MiB (0%)
Language                                 : German
Default                                  : No
Forced                                   : No

Menu
00:00:00.000                             : :Kapitel 01
00:04:05.245                             : :Kapitel 02
00:13:19.173                             : :Kapitel 03
00:24:05.027                             : :Kapitel 04
00:31:28.970                             : :Kapitel 05
00:40:09.324                             : :Kapitel 06
00:51:53.777                             : :Kapitel 07
01:02:48.682                             : :Kapitel 08
01:10:00.947                             : :Kapitel 09
01:21:54.159                             : :Kapitel 10
01:31:28.316                             : :Kapitel 11





c0bbc9c5f543bd265f1241d1c464308f.zip (38.63 KB, 下载次数: 0)

回复

使用道具 举报

小黑屋|百度云资源论坛 |网站地图

本网站所有资源来自网络,如无意中侵犯了您的权益,请发邮件至 [email protected],立即清除相关链接

GMT+8, 2020-10-30 04:40 , Processed in 0.101292 second(s), 23 queries .

Powered by Discuz! X3.2

© 2001-2013 Comsenz Inc.

快速回复 返回顶部 返回列表