百度云资源论坛

 找回密码
 立即注册
搜索

我们的费尔斯特先生去世了 Our.Dear.Mister.Foerster.Died.1962.720p....

[复制链接]
百度云资源 发表于 2020-10-12 11:33:15 | 显示全部楼层 |阅读模式
帖子完整标题:我们的费尔斯特先生去世了 Our.Dear.Mister.Foerster.Died.1962.720p.BluRay.x264-BiPOLAR 922.13MB




◎译  名 我们的费尔斯特先生去世了/Our Mr. Foerster Died
◎片  名 Um?el nám pan Foerster
◎年  代 1962
◎产  地 捷克斯洛伐克
◎类  别 短片
◎语  言 捷克语
◎上映日期 
◎IMDb评分  6.8/10 from 35 users
◎片  长 Czechoslovakia: 14 分钟
◎导  演 伊日·门泽尔 Jirí Menzel
◎编  剧 伊日·门泽尔 Jirí Menzel
◎主  演 博胡什·扎霍尔斯基 Bohus Záhorsky
       Svatava Hubeňáková

◎标  签 短片 | 捷克 | 1960s | 捷克/斯洛伐克 | 伊利·曼佐 | JiríMenzel | 捷克斯洛伐克 | 已收录

◎简  介

  In beautiful sunny afternoon in Prague, a man of a certain age discusses his love of Provence. Suddenly, a black flag is suspended. The composer Foerster died.
  
  Graduation film of director Jirí Menzel.
Video
ID                                       : 1
Format                                   : AVC
Format/Info                              : Advanced Video Codec
Format settings                          : CABAC / 11 Ref Frames
Format settings, CABAC                   : Yes
Format settings, Reference frames        : 11 frames
Codec ID                                 : V_MPEG4/ISO/AVC
Duration                                 : 15 min 23 s
Bit rate                                 : 8 126 kb/s
Width                                    : 986 pixels
Height                                   : 720 pixels
Display aspect ratio                     : 4:3
Frame rate mode                          : Constant
Frame rate                               : 24.000 FPS
Color space                              : YUV
Chroma subsampling                       : 4:2:0
Bit depth                                : 8 bits
Scan type                                : Progressive
Bits/(Pixel*Frame)                       : 0.477
Stream size                              : 895 MiB (97%)
Writing library                          : x264 core 161 r3018 db0d417
Encoding settings                        : cabac=1 / ref=11 / deblock=1:-3:-3 / analyse=0x3:0x133 / me=umh / subme=10 / psy=1 / psy_rd=1.00:0.15 / mixed_ref=1 / me_range=24 / chroma_me=1 / trellis=2 / 8x8dct=1 / cqm=0 / deadzone=21,11 / fast_pskip=1 / chroma_qp_offset=-3 / threads=18 / lookahead_threads=3 / sliced_threads=0 / nr=0 / decimate=1 / interlaced=0 / bluray_compat=0 / constrained_intra=0 / bframes=8 / b_pyramid=2 / b_adapt=2 / b_bias=0 / direct=3 / weightb=1 / open_gop=0 / weightp=2 / keyint=250 / keyint_min=24 / scenecut=40 / intra_refresh=0 / rc_lookahead=60 / rc=crf / mbtree=1 / crf=18.0 / qcomp=0.60 / qpmin=0 / qpmax=69 / qpstep=4 / ip_ratio=1.40 / aq=3:0.50
Language                                 : English
Default                                  : Yes
Forced                                   : No
Color range                              : Limited
Matrix coefficients                      : BT.709

Audio
ID                                       : 2
Format                                   : FLAC
Format/Info                              : Free Lossless Audio Codec
Codec ID                                 : A_FLAC
Duration                                 : 15 min 24 s
Bit rate mode                            : Variable
Bit rate                                 : 239 kb/s
Channel(s)                               : 2 channels
Channel layout                           : L R
Sampling rate                            : 48.0 kHz
Frame rate                               : 11.719 FPS (4096 SPF)
Bit depth                                : 16 bits
Compression mode                         : Lossless
Stream size                              : 26.3 MiB (3%)
Writing library                          : libFLAC 1.2.1 (UTC 2007-09-17)
Language                                 : Czech
Default                                  : Yes
Forced                                   : No

Text #1
ID                                       : 3
Format                                   : UTF-8
Codec ID                                 : S_TEXT/UTF8
Codec ID/Info                            : UTF-8 Plain Text
Duration                                 : 13 min 30 s
Bit rate                                 : 26 b/s
Count of elements                        : 71
Stream size                              : 2.61 KiB (0%)
Title                                    : English
Language                                 : English
Default                                  : Yes
Forced                                   : Yes

Text #2
ID                                       : 4
Format                                   : PGS
Muxing mode                              : zlib
Codec ID                                 : S_HDMV/PGS
Codec ID/Info                            : Picture based subtitle format used on BDs/HD-DVDs
Duration                                 : 15 min 15 s
Bit rate                                 : 5 392 b/s
Count of elements                        : 144
Stream size                              : 603 KiB (0%)
Title                                    : English
Language                                 : English
Default                                  : No
Forced                                   : No

Menu
00:00:00.000                             : en:00:00:00.000
00:08:08.208                             : en:00:08:08.208




                                                                                                                                                                                                        
   
7cb963a6b37a7d1f0115a18788ffa8b4.zip (19.54 KB, 下载次数: 0)

回复

使用道具 举报

小黑屋|百度云资源论坛 |网站地图

本网站所有资源来自网络,如无意中侵犯了您的权益,请发邮件至 [email protected],立即清除相关链接

GMT+8, 2020-11-1 07:33 , Processed in 0.099361 second(s), 23 queries .

Powered by Discuz! X3.2

© 2001-2013 Comsenz Inc.

快速回复 返回顶部 返回列表