百度云资源论坛

 找回密码
 立即注册
搜索

白色白色的一天 A.White.White.Day.2019.1080p.BluRay.x264-SCARE 13.37GB

[复制链接]
百度云电影 发表于 2020-10-11 11:47:36 | 显示全部楼层 |阅读模式
帖子完整标题:白色白色的一天 A.White.White.Day.2019.1080p.BluRay.x264-SCARE 13.37GB




◎译  名 白色白色的一天/A White, White Day/接近无限的白(台)
◎片  名 Hvítur, Hvítur Dagur
◎年  代 2019
◎产  地 冰岛,丹麦
◎类  别 剧情
◎语  言 冰岛语
◎上映日期 2019-05-16(戛纳电影节) / 2019-09-06(冰岛)
◎IMDb评分  6.9/10 from 2349 users
◎片  长 109分钟
◎导  演 希尼尔·保尔马松 Hlynur Pálmason
◎编  剧 希尼尔·保尔马松 Hlynur Pálmason
◎主  演 英格瓦·埃盖特·西古德松 Ingvar Eggert Siguresson
       赫米尔·希尼·古纳森 Hilmir Sn?r Guenason
       莎拉·道格·阿斯盖尔斯杜提尔 Sara D?gg ásgeirsdóttir
       Bj?rn Ingi Hilmarsson
       哈拉迪尔·阿里·斯特凡松 Haraldur Ari Stefánsson
       Laufey Elíasdóttir
       西德格尔·西乌尔乔森 Sigureur Sigurjónsson
       Arnmundur Ernst Bj?rnsson
       Sverrir Tór Sverrisson

◎标  签 冰岛 | 2019 | 剧情 | 冰岛电影 | 丹麦 | 戛纳电影节 | 戛纳 | 家庭

◎简  介

  一场不寻常的车祸,夺走小镇警长的爱妻。此后,他开始独自一人埋头改造要给女儿一家的小屋,用自己的方式哀悼挚爱的离去。两年过去,尽管孙女陪伴在侧,伤痛却从未痊愈。当他终于开始整理妻子遗物,却发现她过世前疑似出轨的痕迹,深埋心底的巨大悲伤逐渐发酵成浓烈妒意,他决定任其吞噬所有理性??
  
  谣传,当白雾迷茫、天地相衔之时,亡者将会开启与生者的对话。 《爱比雪更冷》冰岛新锐导演海纳尔帕玛颂风格十足的第二部长片,以北国雪季的雾月传说,释放灵魂最深处压抑的情感,将扭曲变形的哀伤谱作一首献给硬汉的「侵」爱之歌。宛若北欧变奏版《百日告别》。 《爱马士》伊格瓦艾格特西格罗森的完美演出,让他赢得坎城影评人周最佳演出奖的殊荣。

◎获奖情况

  第72届戛纳电影节 ?(2019)
  影评人周单元影评人周单元大奖(提名) 希尼尔·保尔马松
  影评人周单元新星奖 英格瓦·埃盖特·西古德松
  
  第32届欧洲电影奖 ?(2019)
  最佳男主角(提名) 英格瓦·埃盖特·西古德松
  最佳摄影(提名)
Video
ID                                       : 1
Format                                   : AVC
Format settings                          : CABAC / 5 Ref Frames
Format settings, CABAC                   : Yes
Format settings, Reference frames        : 5 frames
Codec ID                                 : V_MPEG4/ISO/AVC
Duration                                 : 1 h 48 min
Bit rate                                 : 15.6 Mb/s
Width                                    : 1 920 pixels
Height                                   : 804 pixels
Display aspect ratio                     : 2.40:1
Frame rate mode                          : Constant
Frame rate                               : 24.000 FPS
Color space                              : YUV
Chroma subsampling                       : 4:2:0
Bit depth                                : 8 bits
Scan type                                : Progressive
Bits/(Pixel*Frame)                       : 0.421
Stream size                              : 11.9 GiB (89%)
Writing library                          : x264 core 161 r3018 db0d417
Encoding settings                        : cabac=1 / ref=5 / deblock=1:-3:-3 / analyse=0x3:0x133 / me=umh / subme=10 / psy=1 / psy_rd=1.20:0.00 / mixed_ref=1 / me_range=24 / chroma_me=1 / trellis=2 / 8x8dct=1 / cqm=0 / deadzone=21,11 / fast_pskip=0 / chroma_qp_offset=-2 / threads=6 / lookahead_threads=1 / sliced_threads=0 / nr=0 / decimate=0 / interlaced=0 / bluray_compat=0 / constrained_intra=0 / bframes=8 / b_pyramid=2 / b_adapt=2 / b_bias=0 / direct=3 / weightb=1 / open_gop=0 / weightp=2 / keyint=250 / keyint_min=24 / scenecut=40 / intra_refresh=0 / rc=crf / mbtree=0 / crf=18.6 / qcomp=0.60 / qpmin=0 / qpmax=69 / qpstep=4 / ip_ratio=1.40 / pb_ratio=1.30 / aq=3:0.90
Default                                  : Yes
Forced                                   : No
Color range                              : Limited
Matrix coefficients                      : BT.709

Audio
ID                                       : 2
Format                                   : DTS XLL
Format/Info                              : Digital Theater Systems
Commercial name                          : DTS-HD Master Audio
Codec ID                                 : A_DTS
Duration                                 : 1 h 48 min
Bit rate mode                            : Variable
Bit rate                                 : 1 953 kb/s
Channel(s)                               : 6 channels
Channel layout                           : C L R Ls Rs LFE
Sampling rate                            : 48.0 kHz
Frame rate                               : 93.750 FPS (512 SPF)
Bit depth                                : 16 bits
Compression mode                         : Lossless
Stream size                              : 1.49 GiB (11%)
Language                                 : Icelandic
Default                                  : Yes
Forced                                   : No

Text #1
ID                                       : 3
Format                                   : UTF-8
Codec ID                                 : S_TEXT/UTF8
Codec ID/Info                            : UTF-8 Plain Text
Duration                                 : 1 h 40 min
Bit rate                                 : 29 b/s
Count of elements                        : 777
Stream size                              : 21.9 KiB (0%)
Title                                    : English (Forced)
Language                                 : English
Default                                  : Yes
Forced                                   : Yes

Text #2
ID                                       : 4
Format                                   : PGS
Muxing mode                              : zlib
Codec ID                                 : S_HDMV/PGS
Codec ID/Info                            : Picture based subtitle format used on BDs/HD-DVDs
Duration                                 : 1 h 40 min
Bit rate                                 : 18.2 kb/s
Count of elements                        : 1554
Stream size                              : 13.1 MiB (0%)
Language                                 : English
Default                                  : No
Forced                                   : No

Menu
00:00:00.000                             : en:Chapter 01
00:07:41.750                             : en:Chapter 02
00:17:54.292                             : en:Chapter 03
00:29:08.083                             : en:Chapter 04
00:36:52.875                             : en:Chapter 05
00:47:40.958                             : en:Chapter 06
00:57:41.208                             : en:Chapter 07
01:05:42.042                             : en:Chapter 08
01:16:56.125                             : en:Chapter 09
01:29:32.333                             : en:Chapter 10
01:34:35.208                             : en:Chapter 11
01:45:14.500                             : en:Chapter 12




                                                                                                                                                                                                        
                                                                                                                                                                                                                                                                                                                                                                                                                                                                                    
22f507af53d25334d4694627d5f0448c.zip (67.54 KB, 下载次数: 0)

回复

使用道具 举报

小黑屋|百度云资源论坛 |网站地图

本网站所有资源来自网络,如无意中侵犯了您的权益,请发邮件至 [email protected],立即清除相关链接

GMT+8, 2020-10-25 21:10 , Processed in 0.119361 second(s), 23 queries .

Powered by Discuz! X3.2

© 2001-2013 Comsenz Inc.

快速回复 返回顶部 返回列表