百度云资源论坛

 找回密码
 立即注册
搜索

诡异童谣/恶人谷梦魇童谣 Koko-di.Koko-da.2019.720p.BluRay.x264-SCAR...

[复制链接]
百度云资源 发表于 2020-10-11 11:16:41 | 显示全部楼层 |阅读模式
帖子完整标题:诡异童谣/恶人谷梦魇童谣 Koko-di.Koko-da.2019.720p.BluRay.x264-SCARE 4.29GB




◎译  名 诡异童谣/恶人谷梦魇童谣(港)/逃出绝命梦(台)
◎片  名 Koko-di Koko-da
◎年  代 2019
◎产  地 瑞典,丹麦
◎类  别 喜剧 / 恐怖
◎语  言 瑞典语,丹麦语
◎上映日期 2019-01-25(圣丹斯电影节) / 2019-08-23(瑞典)
◎IMDb评分  6.1/10 from 1065 users
◎片  长 86分钟(圣丹斯电影节)
◎导  演 约翰尼斯·尼霍姆 Johannes Nyholm
◎编  剧 约翰尼斯·尼霍姆 Johannes Nyholm
◎主  演 Peter Belli
       利夫·埃德伦德 Leif Edlund

◎标  签 恐怖 | 瑞典 | 丹麦 | 惊悚 | 2019 | 童谣 | 剧情 | 瑞典电影

◎简  介

  一首诡异童谣,一场永远去不到终局的游戏,你玩唔起的骇人恶作剧,恰似一个逃不出的噩梦。丈夫坚持到森林露营,但妻子仍无法忘记三年前兔子派对后亲历巨大创伤。人有三急,遇见冷血变态的恶客三人组,夫妻同被困在惊恐漩涡中,不断面对恶意突袭,如何不割席不指责,一同度过难关?瑞典导演尼坎将其动画短片前作《宅男阿布》(2008)及《小巨人》(36届)的怪异荒诞风格,结合大卫连治式的迷离梦魇,逼视婚姻中的幽闭恐惧,拍出夫妻关系的暗黑寓言。

◎获奖情况

  第35届圣丹斯电影节 ?(2019)
  评审团大奖世界电影单元剧情片(提名) 约翰尼斯·尼霍姆
  
  第48届鹿特丹国际电影节 ?(2019)
  老虎奖(提名) 约翰尼斯·尼霍姆
Video
ID                                       : 1
Format                                   : AVC
Format/Info                              : Advanced Video Codec
Format settings                          : CABAC / 9 Ref Frames
Format settings, CABAC                   : Yes
Format settings, Reference frames        : 9 frames
Codec ID                                 : V_MPEG4/ISO/AVC
Duration                                 : 1 h 29 min
Bit rate                                 : 6 222 kb/s
Width                                    : 1 280 pixels
Height                                   : 694 pixels
Display aspect ratio                     : 1.85:1
Frame rate mode                          : Constant
Frame rate                               : 24.000 FPS
Color space                              : YUV
Chroma subsampling                       : 4:2:0
Bit depth                                : 8 bits
Scan type                                : Progressive
Bits/(Pixel*Frame)                       : 0.292
Stream size                              : 3.89 GiB (91%)
Writing library                          : x264 core 161 r3018 db0d417
Encoding settings                        : cabac=1 / ref=9 / deblock=1:-3:-3 / analyse=0x3:0x133 / me=umh / subme=10 / psy=1 / psy_rd=1.20:0.00 / mixed_ref=1 / me_range=24 / chroma_me=1 / trellis=2 / 8x8dct=1 / cqm=0 / deadzone=21,11 / fast_pskip=0 / chroma_qp_offset=-2 / threads=6 / lookahead_threads=1 / sliced_threads=0 / nr=0 / decimate=0 / interlaced=0 / bluray_compat=0 / constrained_intra=0 / bframes=8 / b_pyramid=2 / b_adapt=2 / b_bias=0 / direct=3 / weightb=1 / open_gop=0 / weightp=2 / keyint=250 / keyint_min=24 / scenecut=40 / intra_refresh=0 / rc=crf / mbtree=0 / crf=16.0 / qcomp=0.60 / qpmin=0 / qpmax=69 / qpstep=4 / ip_ratio=1.40 / pb_ratio=1.30 / aq=3:0.90
Default                                  : Yes
Forced                                   : No
Color range                              : Limited
Matrix coefficients                      : BT.709

Audio
ID                                       : 2
Format                                   : AC-3
Format/Info                              : Audio Coding 3
Commercial name                          : Dolby Digital
Codec ID                                 : A_AC3
Duration                                 : 1 h 29 min
Bit rate mode                            : Constant
Bit rate                                 : 640 kb/s
Channel(s)                               : 6 channels
Channel layout                           : L R C LFE Ls Rs
Sampling rate                            : 48.0 kHz
Frame rate                               : 31.250 FPS (1536 SPF)
Compression mode                         : Lossy
Stream size                              : 409 MiB (9%)
Language                                 : Swedish
Service kind                             : Complete Main
Default                                  : Yes
Forced                                   : No

Text #1
ID                                       : 3
Format                                   : UTF-8
Codec ID                                 : S_TEXT/UTF8
Codec ID/Info                            : UTF-8 Plain Text
Duration                                 : 1 h 18 min
Bit rate                                 : 15 b/s
Count of elements                        : 330
Stream size                              : 8.73 KiB (0%)
Title                                    : English (Forced)
Language                                 : English
Default                                  : Yes
Forced                                   : Yes

Text #2
ID                                       : 4
Format                                   : PGS
Muxing mode                              : zlib
Codec ID                                 : S_HDMV/PGS
Codec ID/Info                            : Picture based subtitle format used on BDs/HD-DVDs
Duration                                 : 1 h 28 min
Bit rate                                 : 9 526 b/s
Count of elements                        : 662
Stream size                              : 6.00 MiB (0%)
Language                                 : English
Default                                  : No
Forced                                   : No

Menu
00:00:00.000                             : en:Chapter 01
00:08:33.208                             : en:Chapter 02
00:20:06.458                             : en:Chapter 03
00:31:57.583                             : en:Chapter 04
00:43:36.958                             : en:Chapter 05
00:55:19.750                             : en:Chapter 06
01:07:08.667                             : en:Chapter 07
01:19:43.208                             : en:Chapter 08




                                                                                                                                                                                                        
                                                                                                                                                                                                                                          
12736570cccfc59da56f93dea72511d2.zip (44.38 KB, 下载次数: 0)

回复

使用道具 举报

小黑屋|百度云资源论坛 |网站地图

本网站所有资源来自网络,如无意中侵犯了您的权益,请发邮件至 [email protected],立即清除相关链接

GMT+8, 2020-11-1 06:01 , Processed in 0.116740 second(s), 23 queries .

Powered by Discuz! X3.2

© 2001-2013 Comsenz Inc.

快速回复 返回顶部 返回列表