百度云资源论坛

 找回密码
 立即注册
搜索

不寻常的美国 America.as.Seen.by.a.Frenchman.1960.720p.BluRay.x264-BiPOL...

[复制链接]
百度云电影 发表于 2020-10-11 11:16:41 | 显示全部楼层 |阅读模式
帖子完整标题:不寻常的美国 America.as.Seen.by.a.Frenchman.1960.720p.BluRay.x264-BiPOLAR 6.60GB




◎译  名 不寻常的美国/America As Seen by a Frenchman/美国春光(港)
◎片  名 L'Amérique insolite
◎年  代 1960
◎产  地 法国
◎类  别 纪录片
◎语  言 法语
◎上映日期 1961-09-22
◎IMDb评分  7.1/10 from 61 users
◎导  演 弗朗索瓦·莱兴巴赫 Fran?ois Reichenbach
◎编  剧 弗朗索瓦·莱兴巴赫 Fran?ois Reichenbach / 克里斯·马克 Chris Marker
◎主  演 June Richmond
       让·科克托 Jean Cocteau
       Paul Klinger

◎标  签 纪录片 | 法国导演电影 | P-CannesA入围主竞赛 | Marker,Chris | Marker | Chris

◎简  介

  At the end of the 1950s, celebrated French documentarian Fran?ois Reichenbach (F for Fake, Portrait: Orson Welles), whose lens captured the likes of Brigitte Bardot and Johnny Hallyday, spent eighteen months travelling the United States, documenting its diverse regions, their inhabitants and their pastimes. The result, America As Seen by a Frenchman, is a wide-eyed – perhaps even na?ve – journey through a multitude of different Americas, filtered through a French sensibility and serving as a fascinating exploration of a culture that is both immediately familiar and thoroughly alien.
  
  Prison rodeos; Miss America pageants; visits to Disneyland and a school for striptease; a town inhabited solely by twins; rows of newborns in incubators, like products on an assembly line – all these weird and wondrous sights, and more, are captured, sans jugement, by Reichenbach’s camera, aided by whimsical narration (provided by, among others, Jean Cocteau) and a jaunty musical score by the late, great Michel Legrand (Une femme est une femme).
  
  Titled L’Amérique insolite – literally “unusual America” – in its native tongue, America As Seen by a Frenchman lovingly renders the various eccentricities of Americana circa the mid-twentieth century, and proves the old adage that reality really is stranger than fiction.

◎获奖情况

  第13届戛纳电影节 ?(1960)
  主竞赛单元金棕榈奖(提名) 弗朗索瓦·莱兴巴赫
Video
ID                                       : 1
Format                                   : AVC
Format/Info                              : Advanced Video Codec
Format settings                          : CABAC / 11 Ref Frames
Format settings, CABAC                   : Yes
Format settings, Reference frames        : 11 frames
Codec ID                                 : V_MPEG4/ISO/AVC
Duration                                 : 1 h 30 min
Bit rate                                 : 9 799 kb/s
Width                                    : 1 280 pixels
Height                                   : 546 pixels
Display aspect ratio                     : 2.35:1
Frame rate mode                          : Constant
Frame rate                               : 23.976 (24000/1001/189150) FPS
Color space                              : YUV
Chroma subsampling                       : 4:2:0
Bit depth                                : 8 bits
Scan type                                : Progressive
Bits/(Pixel*Frame)                       : 0.585
Stream size                              : 6.21 GiB (94%)
Writing library                          : x264 core 161 r3018 db0d417
Encoding settings                        : cabac=1 / ref=11 / deblock=1:-3:-3 / analyse=0x3:0x133 / me=umh / subme=10 / psy=1 / psy_rd=1.00:0.15 / mixed_ref=1 / me_range=24 / chroma_me=1 / trellis=2 / 8x8dct=1 / cqm=0 / deadzone=21,11 / fast_pskip=1 / chroma_qp_offset=-3 / threads=17 / lookahead_threads=2 / sliced_threads=0 / nr=0 / decimate=1 / interlaced=0 / bluray_compat=0 / constrained_intra=0 / bframes=8 / b_pyramid=2 / b_adapt=2 / b_bias=0 / direct=3 / weightb=1 / open_gop=0 / weightp=2 / keyint=250 / keyint_min=23 / scenecut=40 / intra_refresh=0 / rc_lookahead=60 / rc=crf / mbtree=1 / crf=19.0 / qcomp=0.60 / qpmin=0 / qpmax=69 / qpstep=4 / ip_ratio=1.40 / aq=3:0.50
Language                                 : English
Default                                  : Yes
Forced                                   : No
Color range                              : Limited
Matrix coefficients                      : BT.709

Audio
ID                                       : 2
Format                                   : FLAC
Format/Info                              : Free Lossless Audio Codec
Codec ID                                 : A_FLAC
Duration                                 : 1 h 30 min
Bit rate mode                            : Variable
Bit rate                                 : 604 kb/s
Channel(s)                               : 1 channel
Channel layout                           : C
Sampling rate                            : 48.0 kHz
Frame rate                               : 11.719 FPS (4096 SPF)
Bit depth                                : 24 bits
Compression mode                         : Lossless
Stream size                              : 392 MiB (6%)
Writing library                          : libFLAC 1.2.1 (UTC 2007-09-17)
Language                                 : French
Default                                  : Yes
Forced                                   : No

Text #1
ID                                       : 3
Format                                   : UTF-8
Codec ID                                 : S_TEXT/UTF8
Codec ID/Info                            : UTF-8 Plain Text
Duration                                 : 1 h 28 min
Bit rate                                 : 42 b/s
Count of elements                        : 632
Stream size                              : 27.4 KiB (0%)
Title                                    : English
Language                                 : English
Default                                  : Yes
Forced                                   : Yes

Text #2
ID                                       : 4
Format                                   : PGS
Muxing mode                              : zlib
Codec ID                                 : S_HDMV/PGS
Codec ID/Info                            : Picture based subtitle format used on BDs/HD-DVDs
Duration                                 : 1 h 28 min
Bit rate                                 : 6 410 b/s
Count of elements                        : 1264
Stream size                              : 4.05 MiB (0%)
Title                                    : English
Language                                 : English
Default                                  : No
Forced                                   : No

Menu
00:00:00.000                             : en:00:00:00.000
00:13:23.553                             : en:00:13:23.553
00:24:50.656                             : en:00:24:50.656
00:30:33.040                             : en:00:30:33.040
00:34:42.414                             : en:00:34:42.414
00:37:04.264                             : en:00:37:04.264
00:44:21.742                             : en:00:44:21.742
00:47:04.113                             : en:00:47:04.113
01:03:23.800                             : en:01:03:23.800
01:08:14.090                             : en:01:08:14.090
01:18:29.204                             : en:01:18:29.204
01:22:34.116                             : en:01:22:34.116




                                                                                                                                                                                                        
                                                                                                                                                                                                                                          
b91a19dfe8b3addbf00df9389023c087.zip (34.54 KB, 下载次数: 0)

回复

使用道具 举报

小黑屋|百度云资源论坛 |网站地图

本网站所有资源来自网络,如无意中侵犯了您的权益,请发邮件至 [email protected],立即清除相关链接

GMT+8, 2020-11-1 07:28 , Processed in 0.106996 second(s), 23 queries .

Powered by Discuz! X3.2

© 2001-2013 Comsenz Inc.

快速回复 返回顶部 返回列表