百度云资源论坛

 找回密码
 立即注册
搜索

疯狂的狐狸 The.Mad.Fox.1962.720p.BluRay.x264-BiPOLAR 7.19GB

[复制链接]
百度云电影 发表于 2020-10-11 11:16:41 | 显示全部楼层 |阅读模式
帖子完整标题:疯狂的狐狸 The.Mad.Fox.1962.720p.BluRay.x264-BiPOLAR 7.19GB




◎译  名 疯狂的狐狸/Mad Fox
◎片  名 恋や恋なすな恋
◎年  代 1962
◎产  地 日本
◎类  别 剧情 / 爱情 / 奇幻
◎语  言 日语
◎上映日期 1962-05-01(日本)
◎IMDb评分  7.1/10 from 145 users
◎片  长 109 分钟
◎导  演 内田吐梦 Tomu Uchida
◎主  演 瑳峨三智子 Michiko Saga
       月形龙之介 Ryunosuke Tsukigata
       加藤嘉 Yoshi Kat?
       河原崎长一郎 Choichiro Kawarazaki
       柳永二郎 Eijir? Yanagi
       日高澄子 Sumiko Hidaka
       小泽荣太郎 Eitar? Ozawa
       大川桥藏 Hashizo Okawa

◎标  签 日本 | 内田吐梦 | 奇幻 | 1962 | 日本电影 | 爱情 | 歌舞伎 | 內田吐夢

◎简  介

  ここ京の都に白い虹がかかり、それに続いて様々な変事が起るので、人々は不安な思いにとざされていた。時の天皇朱雀帝は人心が乱れていることに心を痛め、天文学者加茂保憲に中国の秘伝書金烏玉兎集を解読し変事の原因をつきとめるよう命じた。保憲には阿倍保名、芦屋道満の二人の高弟があったが、養女榊の前を愛する勤勉な保名を保憲は加茂家の跡継ぎにと考えていた。一方、保憲の後室と通ずる道満はそのことを知り、秘伝書の解読を終えて御所に参上しようとする保憲を家来悪右衛門に暗殺させ、秘伝書を奪った。その上、罪を保名と榊にきせてしまった。無実の罪をきせられた榊は苦しみのあまり自殺、愛する榊を失った保名は発狂し、後室を斬りすて秘伝書をとり返したまま榊の面影を求めて流浪の旅に出た。数日後、榊の故郷信太の里にたどりついた保名は、榊と瓜二つの妹葛の葉に出会った。榊の面影を宿す葛の葉の看護を得て、保名は狂った心のうちにも幸せを感じたが、葛の葉もそんな保名に恋心をはせるのだった。だがこの幸せも長くはなかった。白狐狩りにやって来た悪右衛門は保名を発見し、白狐を逃がされた腹いせもあって保名を滅多打ちにしたあげく、葛の葉を連れ去った。傷ついた保名を救ったのは、彼に助けられた白狐だった。白狐は娘狐を葛の葉に姿を変えさせ、和泉の森深くで保名を看病させた。狐葛の葉は保名を慕い、保名も狐の化身とは露知らず狐葛の葉と契りを結んだ。その頃、悪右衛門の手を逃れた葛の葉は、保名を尋ねて和泉の森へやって来た。そこで正気に戻っていた保名にめぐり逢った葛の葉は狂気して保名の胸に泣きくずれた。何も知らない保名は驚いた。こんな二人の様子を見た狐葛の葉は、恋の終りを知り静かに眠る我が子の枕辺に和歌を詠み残すと姿を消した。すべてを知った保名は、狐葛の葉を悲しく呼びつづけた。そこへ保名の持っている秘伝書を奪おうと道満、悪右衛門一味が押し寄せたが、保名を守る白狐の化身にたおされた。折も折、保名の無事が証明されたという報せを持って都から使いがやって来た。喜んだ葛の葉は保名に都へ帰ることをすすめたが、保名はこの森に残る決心をし葛の葉に別れを告げるのだった。...

◎获奖情况

  第23届威尼斯电影节 ?(1962)
  主竞赛单元金狮奖(提名) 内田吐梦
Video
ID                                       : 1
Format                                   : AVC
Format/Info                              : Advanced Video Codec
Format settings                          : CABAC / 11 Ref Frames
Format settings, CABAC                   : Yes
Format settings, Reference frames        : 11 frames
Codec ID                                 : V_MPEG4/ISO/AVC
Duration                                 : 1 h 48 min
Bit rate                                 : 8 765 kb/s
Width                                    : 1 280 pixels
Height                                   : 546 pixels
Display aspect ratio                     : 2.35:1
Frame rate mode                          : Constant
Frame rate                               : 23.976 (24000/1001/189150) FPS
Color space                              : YUV
Chroma subsampling                       : 4:2:0
Bit depth                                : 8 bits
Scan type                                : Progressive
Bits/(Pixel*Frame)                       : 0.523
Stream size                              : 6.66 GiB (93%)
Writing library                          : x264 core 161 r3018 db0d417
Encoding settings                        : cabac=1 / ref=11 / deblock=1:-3:-3 / analyse=0x3:0x133 / me=umh / subme=10 / psy=1 / psy_rd=1.00:0.15 / mixed_ref=1 / me_range=24 / chroma_me=1 / trellis=2 / 8x8dct=1 / cqm=0 / deadzone=21,11 / fast_pskip=1 / chroma_qp_offset=-3 / threads=17 / lookahead_threads=2 / sliced_threads=0 / nr=0 / decimate=1 / interlaced=0 / bluray_compat=0 / constrained_intra=0 / bframes=8 / b_pyramid=2 / b_adapt=2 / b_bias=0 / direct=3 / weightb=1 / open_gop=0 / weightp=2 / keyint=250 / keyint_min=23 / scenecut=40 / intra_refresh=0 / rc_lookahead=60 / rc=crf / mbtree=1 / crf=14.5 / qcomp=0.60 / qpmin=0 / qpmax=69 / qpstep=4 / ip_ratio=1.40 / aq=3:0.50
Language                                 : English
Default                                  : Yes
Forced                                   : No
Color range                              : Limited
Matrix coefficients                      : BT.709

Audio #1
ID                                       : 2
Format                                   : FLAC
Format/Info                              : Free Lossless Audio Codec
Codec ID                                 : A_FLAC
Duration                                 : 1 h 48 min
Bit rate mode                            : Variable
Bit rate                                 : 553 kb/s
Channel(s)                               : 1 channel
Channel layout                           : C
Sampling rate                            : 48.0 kHz
Frame rate                               : 11.719 FPS (4096 SPF)
Bit depth                                : 24 bits
Compression mode                         : Lossless
Stream size                              : 431 MiB (6%)
Writing library                          : libFLAC 1.2.1 (UTC 2007-09-17)
Language                                 : Japanese
Default                                  : Yes
Forced                                   : No

Audio #2
ID                                       : 3
Format                                   : AAC LC
Format/Info                              : Advanced Audio Codec Low Complexity
Codec ID                                 : A_AAC-2
Duration                                 : 1 h 48 min
Bit rate                                 : 126 kb/s
Channel(s)                               : 2 channels
Channel layout                           : L R
Sampling rate                            : 48.0 kHz
Frame rate                               : 46.875 FPS (1024 SPF)
Compression mode                         : Lossy
Delay relative to video                  : 9 ms
Stream size                              : 98.1 MiB (1%)
Title                                    : English Commentary by Jasper Sharp
Language                                 : English
Default                                  : No
Forced                                   : No

Text #1
ID                                       : 4
Format                                   : UTF-8
Codec ID                                 : S_TEXT/UTF8
Codec ID/Info                            : UTF-8 Plain Text
Duration                                 : 1 h 48 min
Bit rate                                 : 35 b/s
Count of elements                        : 887
Stream size                              : 28.0 KiB (0%)
Title                                    : English
Language                                 : English
Default                                  : Yes
Forced                                   : Yes

Text #2
ID                                       : 5
Format                                   : PGS
Muxing mode                              : zlib
Codec ID                                 : S_HDMV/PGS
Codec ID/Info                            : Picture based subtitle format used on BDs/HD-DVDs
Duration                                 : 1 h 48 min
Bit rate                                 : 6 054 b/s
Count of elements                        : 1774
Stream size                              : 4.71 MiB (0%)
Title                                    : English
Language                                 : English
Default                                  : No
Forced                                   : No

Menu
00:00:00.000                             : en:00:00:00.000
00:08:42.897                             : en:00:08:42.897
00:15:40.439                             : en:00:15:40.439
00:21:52.811                             : en:00:21:52.811
00:27:40.742                             : en:00:27:40.742
00:34:01.081                             : en:00:34:01.081
00:45:49.997                             : en:00:45:49.997
00:52:40.491                             : en:00:52:40.491
01:01:02.450                             : en:01:01:02.450
01:11:51.098                             : en:01:11:51.098
01:21:51.448                             : en:01:21:51.448
01:43:48.305                             : en:01:43:48.305




                                                                                                                                                                                                        


7d667ad9acd9e0cc51ef7738ce4b639d.zip (37.42 KB, 下载次数: 0)

回复

使用道具 举报

小黑屋|百度云资源论坛 |网站地图

本网站所有资源来自网络,如无意中侵犯了您的权益,请发邮件至 [email protected],立即清除相关链接

GMT+8, 2020-10-30 02:54 , Processed in 0.112753 second(s), 23 queries .

Powered by Discuz! X3.2

© 2001-2013 Comsenz Inc.

快速回复 返回顶部 返回列表