百度云资源论坛

 找回密码
 立即注册
搜索

女清洁工/地狱家政妇 The.Cleaning.Lady.2018.720p.BluRay.x264-JustWatc...

[复制链接]
百度云电影 发表于 2020-10-8 22:15:02 | 显示全部楼层 |阅读模式
帖子完整标题:女清洁工/地狱家政妇 The.Cleaning.Lady.2018.720p.BluRay.x264-JustWatch 1.82GB




◎译  名 女清洁工/地狱家政妇(台)
◎片  名 The Cleaning Lady
◎年  代 2018
◎产  地 美国
◎类  别 惊悚 / 恐怖
◎语  言 英语
◎上映日期 2018-08-24(恐怖电影节) / 2018-09-15(美国)
◎IMDb评分  5.4/10 from 2192 users
◎片  长 90分钟
◎导  演 乔恩·克劳兹 Jon Knautz
◎编  剧 亚历克西斯·肯德拉 Alexis Kendra / 乔恩·克劳兹 Jon Knautz
◎主  演 亚历克西斯·肯德拉 Alexis Kendra
       斯特里奥·萨万特 Stelio Savante
       瑞秋·艾里格 Rachel Alig
       伊莉莎白·桑迪 Elizabeth Sandy

◎标  签 惊悚 | 恐怖 | 美国 | 犯罪 | 2018 | 美国电影 | 变态杀人狂 | 囚禁

◎简  介

  As a means to distract herself from an affair, a love-addicted woman befriends a cleaning lady, badly scarred by burns. She soon learns, these scars run much deeper than the surface.
Video
ID                                       : 1
Format                                   : AVC
Format/Info                              : Advanced Video Codec
Format settings                          : CABAC / 8 Ref Frames
Format settings, CABAC                   : Yes
Format settings, Reference frames        : 8 frames
Codec ID                                 : V_MPEG4/ISO/AVC
Duration                                 : 1 h 30 min
Bit rate                                 : 2 238 kb/s
Width                                    : 1 280 pixels
Height                                   : 544 pixels
Display aspect ratio                     : 2.35:1
Frame rate mode                          : Constant
Frame rate                               : 23.976 (24000/1001/189150) FPS
Color space                              : YUV
Chroma subsampling                       : 4:2:0
Bit depth                                : 8 bits
Scan type                                : Progressive
Bits/(Pixel*Frame)                       : 0.134
Stream size                              : 1.41 GiB (78%)
Writing library                          : x264 core 161 r3018 db0d417
Encoding settings                        : cabac=1 / ref=8 / deblock=1:-3:-3 / analyse=0x3:0x133 / me=umh / subme=9 / psy=1 / psy_rd=1.00:0.00 / mixed_ref=1 / me_range=16 / chroma_me=1 / trellis=2 / 8x8dct=1 / cqm=0 / deadzone=21,11 / fast_pskip=0 / chroma_qp_offset=-2 / threads=17 / lookahead_threads=1 / sliced_threads=0 / nr=0 / decimate=1 / interlaced=0 / bluray_compat=0 / constrained_intra=0 / bframes=3 / b_pyramid=2 / b_adapt=2 / b_bias=0 / direct=3 / weightb=1 / open_gop=0 / weightp=2 / keyint=250 / keyint_min=23 / scenecut=40 / intra_refresh=0 / rc_lookahead=60 / rc=crf / mbtree=1 / crf=17.0 / qcomp=0.60 / qpmin=0 / qpmax=69 / qpstep=4 / ip_ratio=1.40 / aq=1:1.00
Language                                 : English
Default                                  : Yes
Forced                                   : No

Audio
ID                                       : 2
Format                                   : AC-3
Format/Info                              : Audio Coding 3
Commercial name                          : Dolby Digital
Codec ID                                 : A_AC3
Duration                                 : 1 h 30 min
Bit rate mode                            : Constant
Bit rate                                 : 640 kb/s
Channel(s)                               : 6 channels
Channel layout                           : L R C LFE Ls Rs
Sampling rate                            : 48.0 kHz
Frame rate                               : 31.250 FPS (1536 SPF)
Compression mode                         : Lossy
Stream size                              : 413 MiB (22%)
Language                                 : English
Service kind                             : Complete Main
Default                                  : Yes
Forced                                   : No

Text
ID                                       : 3
Format                                   : PGS
Muxing mode                              : zlib
Codec ID                                 : S_HDMV/PGS
Codec ID/Info                            : Picture based subtitle format used on BDs/HD-DVDs
Duration                                 : 1 h 21 min
Bit rate                                 : 18.0 kb/s
Count of elements                        : 1220
Stream size                              : 10.5 MiB (1%)
Language                                 : German
Default                                  : No
Forced                                   : No

Menu
00:00:00.000                             : :Kapitel 01
00:07:18.438                             : :Kapitel 02
00:14:03.843                             : :Kapitel 03
00:20:45.244                             : :Kapitel 04
00:29:20.759                             : :Kapitel 05
00:38:02.280                             : :Kapitel 06
00:44:09.647                             : :Kapitel 07
00:53:00.177                             : :Kapitel 08
00:59:23.560                             : :Kapitel 09
01:07:39.055                             : :Kapitel 10
01:14:43.479                             : :Kapitel 11
01:19:48.784                             : :Kapitel 12





3afc1832ca5c24cd245cfaafe47b4dcf.zip (19.69 KB, 下载次数: 0)

回复

使用道具 举报

小黑屋|百度云资源论坛 |网站地图

本网站所有资源来自网络,如无意中侵犯了您的权益,请发邮件至 [email protected],立即清除相关链接

GMT+8, 2020-11-1 07:05 , Processed in 0.103658 second(s), 23 queries .

Powered by Discuz! X3.2

© 2001-2013 Comsenz Inc.

快速回复 返回顶部 返回列表